За последнюю неделю опубликовано 82 новых материалов.
Инструкция новичку Путеводитель по форуму Прокси для Telegram Показать подсказки , это бомба!

Скачать Вечная демонесса и ее черный кролик / Itsuka Tenma no Kuro Usagi [S01] (2011) BDRip от Deadmauvlad | Без Цензуры бесплатно через торрент

  • Поучаствуй (в качестве покупателя) в любых пяти совместных покупках (кроме завершённых и "Моментальных") и получи группу "Новичок" навсегда -> ссылка на раздел
  • Получай до 480 рублей за каждого приглашенного пользователя!
    представляем Вам очередное расширение партнерской программы, подробности описаны тут -> ссылка
  • 90% материалов доступно к скачиванию после простой регистрации!
    Если же ты хочешь скачивать материалы без требования оставлять отзывы то получи группу "Новичок", 10 способов повышения описаны тут -> ссылка
  • К сожалению количество битых ссылок растет и мы уже не можем их оперативно восстанавливать поэтому просим помощи у каждого нашего пользователя.
    С сегодняшнего дня, за каждую восстановленную ссылку мы заплатим Вам.
    Подробнее тут -> ссылка
  • Перенесем твои заслуги с другого ресурса!
    Мы понимаем как сложно прокачивать аккаунты на форумах, вроде раскачал аккаунт, а тут появляется ресурс в 100 раз круче но тоже с системой прокачки и снова качать аккаунт...
    Предлагаем вам перенести Ваши заслуги на другом подобном ресурсе к нам.
    Подробности описаны тут -> ссылка
  • Вы можете получать по 2.5% с каждой покупки и продажи на маркете! Подробности в теме Партнёрская программа

Torrent_Bot

Торрент-Бот
Бот форума
4 Окт 2016
104
152
20


Информация о фильме
Русское название: Семь жизней черного кролика / Вечная демонесса и ее черный кролик
Английское название: Itsuka Tenma no Kuro Usagi
Год: 2011
Жанр:мистика, приключения, романтика, школа, фэнтези, этти
Выпуск: с 9 июля 2011 по 24 сентября 2011
Трансляция: суббота в 01:05 [ночной сеанс] на TV Saitama
Режиссер: Ямамото Такаси
Автор оригинала: Кагами Такая


Описание: Десятиклассник Тайто Куроганэ – видный парень, с детства занимавшийся карате и достигший немалых успехов. Из-за травмы тренировки пришлось бросить, но в старшей школе Миясака красавцу-блондину перепало немало женского внимания, особенно со стороны одноклассницы Харуки. Тайто и сам был не против, но им вдруг заинтересовался президент школьного Совета Гэкко Курэнай, самозваный гений и нарцисс-психопат с манией величия. Разговор с личностью, которая вместо психушки фактически правит школой, насторожил героя, а когда тем же вечером Тайто оторвали голову, он понял, глядя на себя со стороны, что мир вокруг несколько сложнее учебников. Во всем виновата магия!

Жили-были два брата – Гэкко и Хината. Оба были богато одарены, а ведь править может только один! Хината все понял первым и рванул на темную сторону, для начала принеся в жертву собственных родителей. Гэкко остался надеждой сил Света, но из-за пережитого характер его слегка испортился. Тем временем Хината ради абсолютной власти решил воскресить и подчинить древнего вампира Бальскру, чье место погребения знала лишь принцесса вампиров Сайтохимея. Чтобы обезопасить себя, Химея решила создать Защитника из встреченного человеческого мальчика и влила в него большую часть своей силы, но, увы, не успела завершить инициацию. А дальше все еще веселее и запутаннее – смотрите сами!







Производство: Япония
Студия: Zexcs
Продолжительность: 12 серий x ~ 00:25:00
Перевод: Любительский двухголоый, закадровый ZENDOS & MezIdA (1-5), MezIdA и Drey (6-12) [AniFilm]
Возрастное ограничение: 18+
ТВ Цензура:Отсутствует (см.пример отсутствия цензора)

Файл
Качество: BDRip
Контейнер: *AVI
Кодек: XviD
Видео: 720x400 (16:9), 23.976 fps, 1 604 kb/s (0.240 bit/pixel)
Аудио №1: AC-3, 48.0 kHz, 2 ch, 192 kb/s, CBR | | AniFilm
Аудио №2: AC-3, 48.0 kHz, 2 ch, 192 kb/s, CBR | | Japan (Оригинал)
Субтитры: Русские



Папка Bonus содержит
Оригинальные Опенинг и Эндинг без титров


MediaInfo
General
Complete name : [Deadmau- RAWS] Itsuka.Tenma.no.Kuro.Usagi.2011.S01.RUS.JAP.BDRip.Deadmauvlad.Ep.01.avi
Format : AVI
Format/Info : Audio Video Interleave
File size : 354 MiB
Duration : 24 min 42 s
Overall bit rate : 2 003 kb/s
Movie name : [Deadmau- RAWS] Семь.жизней.черного.кролика.2011.S01.RUS.JAP.BDRip.Uncensored.Version.Deadmauvlad.Серия.01
Director : Encoder by Deadmauvlad
Genre : мистика, романтика, школа
Writing application : VirtualDubMod 1.5.10.3 | www.virtualdub-fr.org || (build 2550/release)
Original source form/Name : Аниме
Copyright : Encoder by Deadmauvlad
Comment : Encoder by Deadmauvlad

Video
ID : 0
Format : MPEG-4 Visual
Format profile : Advanced Simple@L5
Format settings : BVOP1 / Custom Matrix
Format settings, BVOP : 1
Format settings, QPel : No
Format settings, GMC : No warppoints
Format settings, Matrix : Custom
Codec ID : XVID
Codec ID/Hint : XviD
Duration : 24 min 42 s
Bit rate : 1 604 kb/s
Width : 720 pixels
Height : 400 pixels
Display aspect ratio : 16:9
Frame rate : 23.976 (24000/1001) FPS
Color space : YUV
Chroma subsampling : 4:2:0
Bit depth : 8 bits
Scan type : Progressive
Compression mode : Lossy
Bits/(Pixel*Frame) : 0.232
Stream size : 284 MiB (80%)
Writing library : XviD 73

Audio #1
ID : 1
Format : AC-3
Format/Info : Audio Coding 3
Commercial name : Dolby Digital
Codec ID : 2000
Duration : 24 min 41 s
Bit rate mode : Constant
Bit rate : 192 kb/s
Channel(s) : 2 channels
Channel layout : L R
Sampling rate : 48.0 kHz
Frame rate : 31.250 FPS (1536 SPF)
Bit depth : 16 bits
Compression mode : Lossy
Stream size : 33.9 MiB (10%)
Alignment : Split accross interleaves
Interleave, duration : 42 ms (1.00 video frame)
Interleave, preload duration : 500 ms


Audio #2
ID : 2
Format : AC-3
Format/Info : Audio Coding 3
Commercial name : Dolby Digital
Codec ID : 2000
Duration : 24 min 42 s
Bit rate mode : Constant
Bit rate : 192 kb/s
Channel(s) : 2 channels
Channel layout : L R
Sampling rate : 48.0 kHz
Frame rate : 31.250 FPS (1536 SPF)
Bit depth : 16 bits
Compression mode : Lossy
Stream size : 33.9 MiB (10%)
Alignment : Split accross interleaves
Interleave, duration : 42 ms (1.00 video frame)
Interleave, preload duration : 500 ms

Пример отсутствия Тв Цензуры...
BDRip ........VS........ HDTVRip




Не ну такое явно по тв не покажут.... Тема сисек раскрыта... Расчехляйте :)

Список серий
01. 900 секунд после школы (Часть первая)
02. 900 секунд после школы (Часть вторая)
03. «Луна» трясётся у бассейна
04. Тенма ещё не запела
05. И Тенма запела
06. Разминочные «факультативные» уроки
07. Тест молниеносным ударом от нового учителя
08. Факультатив для членов ученического совета
09. Чёрный кролик на пляже
10. Таинственно пропавшие одноклассники
11. Катастрофа на летних каникулах
12. Матово-белая выпускная церемония


Скриншоты
Резервные скриншоты


Релиз / Автор рипа: Deadmauvlad

 

Вложения

  • 10,1 KB Просмотры: 0
    Личеров 0
    Сидеров 0
    Файлов 29
    Объем 4,3 GB

Привет!

Мы группа людей которые решили помочь другим в решении их проблем, а так же пользователям с поиском самых свежих и качественных инфопродуктов. За 4 с небольшим месяца мы создали этот форум на который заходят ежедневно тысячи человек и посещаемость постоянно растёт. Мы создали панель лицензирования для защиты PHP скриптов от воровства и SEO панель для мониторинга наших сайтов и выбора верной стратегии их развития. Мы надеемся что то что мы создали пригодится Вам и возможно Вы поможете нам развиваться и совершенствоваться вместе с Вами.

Статистика форума

Темы
404.536
Сообщения
461.421
Пользователи
80.057
Новый пользователь
hrywnia

Приложения форума для iOS и Android


У ркн там нет власти ;)
Приватные разговоры
Помощь Пользователи
    Вы не присоединились ни к одной комнате.