За последнюю неделю опубликовано 99 новых материалов.
Инструкция новичку Путеводитель по форуму Прокси для Telegram Показать подсказки , это бомба!

Скачать Василиск / Basilisk: The Kouga Ninja Scrolls [01-24 из 24] (2005) BDRip 1080 | Mega-Anime бесплатно через торрент

  • Поучаствуй (в качестве покупателя) в любых пяти совместных покупках (кроме завершённых и "Моментальных") и получи группу "Новичок" навсегда -> ссылка на раздел
  • Получай до 480 рублей за каждого приглашенного пользователя!
    представляем Вам очередное расширение партнерской программы, подробности описаны тут -> ссылка
  • 90% материалов доступно к скачиванию после простой регистрации!
    Если же ты хочешь скачивать материалы без требования оставлять отзывы то получи группу "Новичок", 10 способов повышения описаны тут -> ссылка
  • К сожалению количество битых ссылок растет и мы уже не можем их оперативно восстанавливать поэтому просим помощи у каждого нашего пользователя.
    С сегодняшнего дня, за каждую восстановленную ссылку мы заплатим Вам.
    Подробнее тут -> ссылка
  • Перенесем твои заслуги с другого ресурса!
    Мы понимаем как сложно прокачивать аккаунты на форумах, вроде раскачал аккаунт, а тут появляется ресурс в 100 раз круче но тоже с системой прокачки и снова качать аккаунт...
    Предлагаем вам перенести Ваши заслуги на другом подобном ресурсе к нам.
    Подробности описаны тут -> ссылка
  • Вы можете получать по 2.5% с каждой покупки и продажи на маркете! Подробности в теме Партнёрская программа

Torrent_Bot

Торрент-Бот
Бот форума
4 Окт 2016
124
96
20
Год выпуска: 2005
Страна: Япония
Жанр: самурайский боевик, драма, мистика
Выпуск: c 13.04.2005 по 21.09.2005
Студия:
Продолжительность: 25 мин., 24 эп.
Перевод: Профессиональный (многоголосый, закадровый)
Режиссер: Кидзаки Фуминори / Fuminori Kizaki
Описание: Два клана ниндзя, Ига и Кога, издревле враждовали друг с другом. И сверкали мечи, и лилась реками кровь, до тех пор пока на пути древней вражды не встал местный лорд Хаттори Хандзо. И тогда были связаны два клана нерушимым договором, запрещающим стародавнюю вражду.

Время шло, вековая лютая ненависть, хоть и поугасла немного, все равно продолжала тлеть в сердцах непримиримых. Но встали между кланами двое влюбленных, юноша и девушка, два юных сердца, вознамерившиеся вступить в союз и тем самым покончить с древними распрями.

Однако судьба оказалась немилосердна. Волею правителей, которые воспользовались враждой Ига и Кога в собственных целях, договор о ненападении был расторгнут.

И было сказано, что от каждого клана выступят, по десять воинов-ниндзя, и будут они сражаться до последней капли крови, и тот, кто выживет в этой смертельной битве, будет объявлен победителем. Десять человек с каждой стороны. Десять жизней от каждого клана. Двадцать смертей начертано на заветном свитке...

Качество: BDRip 1080
Формат: MKV
Видео кодек: H.264
Аудио кодек: AC3
Тип видео: Без хардсаба
Видео: 1920x1080 at 23.976 fps, V_MPEG4/ISO/AVC, ~6500 Kbps avg
Аудио: Russian: 48 kHz, AC3, 2/0 (L,R,) ch, ~192.00 kbps avg [Многоголосый закадровый, "Mega-Anime"]
Аудио: English: 48 kHz/16-bit, Dolby TrueHD 5.1, ~640.00 kbps avg (внешним файлом)
Аудио: Japan: 48 kHz, AC3, 2/0 (L,R), ~640.00 kbps avg
Субтитры: Russian, English

Список эпизодов
01. Mutual Killing
02. Quickening Two Situations
03. Insect swarm of mercilessness
04. A late night walk within an unfriendly mansion
05. The Six Principles Of The Ninja
06. Falling Tears And Adoration
07. Hell of Human Skin
08. Ruthless Mist of Blood
09. Downpour of Despair
10. Judgement from On High
11. Hopeless Pebbles
12. Magic Lantern Memories
13. The Butterflies' Wild Dance
14. Scattering Flower Channel
15. Execution at Sea
16. Fleeting Portrait of Reminiscence
17. Wandering in the Darkness
18. Dawn of Total Darkness
19. Ferocious Woman's Vicious Scheme
20. The Flux of Mercy
21. Kagero, the Charismatic Assassin
22. The Moans of the Fallen Spirits
23. Eternal Embrace
24. A Chance of Meeting in the Afterlife
Скриншоты
d24cd19a343ebd506adb4c8e1ea06223.jpeg57f1ce7b187300b4942dd4902a3afba0.jpegec716989457bd66c25b0ed1085d18a0e.jpegb9fb5495704b93c0d6c1351e0367ef41.jpeg
параметры рипа
MediaInfo
General
Complete name : D:RAWBasilisk [1080p][BDRip]BASILIK_EP10.mkv
Format : Matroska
File size : 1.18 GiB
Duration : 24mn 8s
Overall bit rate : 6 993 Kbps
Movie name : Basilisk: The Kouga Ninja Scrolls EP_01 (2005) - Release for HDCLUB
Encoded date : UTC 2010-09-28 19:23:32
Writing application : mkvmerge v4.2.0 ('No Talking') сборка от Jul 28 2010 18:38:23
Writing library : libebml v1.0.0 + libmatroska v1.0.0

Video
ID : 1
Format : AVC
Format/Info : Advanced Video Codec
Format profile : High@L4.1
Format settings, CABAC : Yes
Format settings, ReFrames : 5 frames
Muxing mode : Container profile=Unknown@4.1
Codec ID : V_MPEG4/ISO/AVC
Duration : 24mn 8s
Bit rate : 6 152 Kbps
Width : 1 920 pixels
Height : 1 080 pixels
Display aspect ratio : 16:9
Frame rate mode : Variable
Frame rate : 23.976 fps
Color space : YUV
Chroma subsampling : 4:2:0
Bit depth : 8 bits
Scan type : Progressive
Bits/(Pixel*Frame) : 0.124
Stream size : 1.02 GiB (86%)
Writing library : x264 core 96
Encoding settings : cabac=1 / ref=6 / deblock=1:0:0 / analyse=0x3:0x133 / me=umh / subme=9 / psy=1 / psy_rd=0.00:0.00 / mixed_ref=1 / me_range=64 / chroma_me=1 / trellis=0 / 8x8dct=1 / cqm=0 / deadzone=21,11 / fast_pskip=1 / chroma_qp_offset=0 / threads=12 / sliced_threads=0 / nr=0 / decimate=1 / interlaced=0 / constrained_intra=0 / bframes=4 / b_pyramid=1 / b_adapt=2 / b_bias=-30 / direct=2 / weightb=1 / weightp=2 / keyint=240 / keyint_min=10 / scenecut=50 / intra_refresh=0 / rc=2pass / mbtree=0 / bitrate=6152 / ratetol=0.2 / qcomp=0.70 / qpmin=10 / qpmax=51 / qpstep=4 / cplxblur=20.0 / qblur=0.5 / ip_ratio=1.40 / pb_ratio=1.30 / aq=1:1.00

Audio #1
ID : 2
Format : AC-3
Format/Info : Audio Coding 3
Mode extension : CM (complete main)
Muxing mode : Header stripping
Codec ID : A_AC3
Duration : 24mn 8s
Bit rate mode : Constant
Bit rate : 192 Kbps
Channel(s) : 2 channels
Channel positions : Front: L R
Sampling rate : 48.0 KHz
Bit depth : 16 bits
Stream size : 33.1 MiB (3%)
Title : 2/0
Language : Russian

Audio #2
ID : 3
Format : AC-3
Format/Info : Audio Coding 3
Mode extension : CM (complete main)
Muxing mode : Header stripping
Codec ID : A_AC3
Duration : 24mn 8s
Bit rate mode : Constant
Bit rate : 640 Kbps
Channel(s) : 2 channels
Channel positions : Front: L R
Sampling rate : 48.0 KHz
Bit depth : 16 bits
Stream size : 110 MiB (9%)
Title : 2/0
Language : Japanese

Text #1
ID : 4
Format : PGS
Codec ID : S_HDMV/PGS
Codec ID/Info : The same subtitle format used on BDs/HD-DVDs
Language : Russian

Text #2
ID : 5
Format : PGS
Codec ID : S_HDMV/PGS
Codec ID/Info : The same subtitle format used on BDs/HD-DVDs
Language : English

Text #3
ID : 6
Format : PGS
Codec ID : S_HDMV/PGS
Codec ID/Info : The same subtitle format used on BDs/HD-DVDs
Language : English

Menu
00:00:00.000 : en:00:00:00.000
00:02:31.151 : en:00:02:31.151
00:15:13.996 : en:00:15:13.996
00:22:05.533 : en:00:22:05.533
00:23:36.123 : en:00:23:36.123
 

Вложения

Ваш e-mail не будет опубликован. Он потребуется для подтверждения Вашего поста.
Оформление текста Нажмите «Ввод», чтобы отправить ответ.

Привет!

Мы группа людей которые решили помочь другим в решении их проблем, а так же пользователям с поиском самых свежих и качественных инфопродуктов. За 4 с небольшим месяца мы создали этот форум на который заходят ежедневно тысячи человек и посещаемость постоянно растёт. Мы создали панель лицензирования для защиты PHP скриптов от воровства и SEO панель для мониторинга наших сайтов и выбора верной стратегии их развития. Мы надеемся что то что мы создали пригодится Вам и возможно Вы поможете нам развиваться и совершенствоваться вместе с Вами.

Статистика форума

Темы
378.777
Сообщения
418.228
Пользователи
50.113
Новый пользователь
Havalash

Приложения форума для iOS и Android


У ркн там нет власти ;)
Приватные разговоры
Помощь Пользователи
    Вы не присоединились ни к одной комнате.