За последнюю неделю опубликовано 101 новых материалов.
Инструкция новичку Путеводитель по форуму Прокси для Telegram Показать подсказки , это бомба!

Скачать Ванда / Wanda (1970) BDRemux 1080р | L1 бесплатно через торрент

  • Поучаствуй (в качестве покупателя) в любых пяти совместных покупках (кроме завершённых и "Моментальных") и получи группу "Новичок" навсегда -> ссылка на раздел
  • Получай до 480 рублей за каждого приглашенного пользователя!
    представляем Вам очередное расширение партнерской программы, подробности описаны тут -> ссылка
  • 90% материалов доступно к скачиванию после простой регистрации!
    Если же ты хочешь скачивать материалы без требования оставлять отзывы то получи группу "Новичок", 10 способов повышения описаны тут -> ссылка
  • К сожалению количество битых ссылок растет и мы уже не можем их оперативно восстанавливать поэтому просим помощи у каждого нашего пользователя.
    С сегодняшнего дня, за каждую восстановленную ссылку мы заплатим Вам.
    Подробнее тут -> ссылка
  • Перенесем твои заслуги с другого ресурса!
    Мы понимаем как сложно прокачивать аккаунты на форумах, вроде раскачал аккаунт, а тут появляется ресурс в 100 раз круче но тоже с системой прокачки и снова качать аккаунт...
    Предлагаем вам перенести Ваши заслуги на другом подобном ресурсе к нам.
    Подробности описаны тут -> ссылка
  • Вы можете получать по 2.5% с каждой покупки и продажи на маркете! Подробности в теме Партнёрская программа
Если Вы не хотите скачивать, Вы всегда можетепосмотретьонлайн, просто нажмите кнопку ниже :

Открыть плеер

Torrent_Bot

Торрент-Бот
Бот форума
4 Окт 2016
102
153
20



Информация о фильме
Название: Ванда
Оригинальное название: Wanda
Год выхода: 1970
Жанр: драма, криминал
Режиссер: Барбара Лоден
В ролях: Барбара Лоден, Майкл Хиггинс, Дороти Шупенес, Питер Шупенс, Джером Тиер, Мэриэн Тиер, Энтони Ротелл, М.Л. Кеннеди, Джералд Гриппо, Милтон Джиттлман, Лила Джиттлман, Арнольд Кэниг и др.

Описание: Драматическая история молодой необразованной женщины, живущей в одном из сталелитейных городов штата Пенсильвания. Она бросает мужа и детей, после чего вступает в связь с сутенером и грабителем банков.



Страна: США
Продолжительность: 01:43:15
Перевод: любительский (одноголосый закадровый) Олег Воротилин по субтитрам je_koro
Субтитры: русские je_koro, английские SDH
Оригинальная аудиодорожка: английский

Файл
Качество: BDRemux 1080р
Видео: MPEG-4 AVC / 1920x1080 / 16:9 / 23.976 fps / 36082 Kbps / High@L4.1
Аудио 1: Russian / DTS-HD MA / 48.0 KHz / 1.0 / 1066 kbps / 24 bit (DTS Core 48.0 KHz / 1.0 / 768 kbps / 24 bit) Олег Воротилин
Аудио 2: English / DTS-HD MA / 48.0 KHz / 1.0 / 1069 kbps / 24 bit (DTS Core 48.0 KHz / 1.0 / 768 kbps / 24 bit)



Скриншоты
MediaInfo
Общее
Уникальный идентификатор : 48660723370020626859218249941082964869 (0x249BB6E49507175E2FA12BC9F64C0385)
Полное имя : E:porvaliparus.2018Wanda.1970.Criterion.Collection.BDRemux.1080p.mkv
Формат : Matroska
Версия формата : Version 4 / Version 2
Размер файла : 27,1 Гбайт
Продолжительность : 1 ч. 43 м.
Режим общего битрейта : Переменный
Общий поток : 37,5 Мбит/сек
Название фильма : Wanda.1970.Criterion.Collection.BDRemux.1080p-porvaliparus
Дата кодирования : UTC 2019-05-27 05:12:12
Программа кодирования : mkvmerge v34.0.0 ('Sight and Seen') 64-bit
Библиотека кодирования : libebml v1.3.7 + libmatroska v1.5.0

Видео
Идентификатор : 1
Формат : AVC
Формат/Информация : Advanced Video Codec
Профиль формата : High@L4.1
Настройки формата : CABAC / 4 Ref Frames
Параметр CABAC формата : Да
Параметр RefFrames формата : 4 кадра
Идентификатор кодека : V_MPEG4/ISO/AVC
Продолжительность : 1 ч. 43 м.
Вид битрейта : Переменный
Битрейт : 35,4 Мбит/сек
Максимальный битрейт : 37,0 Мбит/сек
Ширина : 1920 пикселей
Высота : 1080 пикселей
Соотношение сторон : 16:9
Режим частоты кадров : Постоянный
Частота кадров : 23,976 (24000/1001) кадра/сек
Цветовое пространство : YUV
Субдискретизация насыщенности : 4:2:0
Битовая глубина : 8 бит
Тип развёртки : Прогрессивная
Бит/(Пиксели*Кадры) : 0.711
Размер потока : 25,5 Гбайт (94%)
Заголовок : Wanda.1970.Criterion.Collection.BDRemux.1080p
Default : Да
Forced : Нет

Аудио #1
Идентификатор : 2
Формат : DTS
Формат/Информация : Digital Theater Systems
Профиль формата : MA / Core
Идентификатор кодека : A_DTS
Продолжительность : 1 ч. 43 м.
Вид битрейта : Переменный / Постоянный
Битрейт : 1066 Кбит/сек / 768 Кбит/сек
Каналы : 1 канал
Расположение каналов : Front: C
Частота : 48,0 КГц
Частота кадров : 93,750 кадра/сек (512 SPF)
Битовая глубина : 24 бит
Метод сжатия : Без потерь / Lossy
Размер потока : 787 Мбайт (3%)
Заголовок : VO [О. Воротилин]
Язык : Russian
Default : Да
Forced : Нет

Аудио #2
Идентификатор : 3
Формат : DTS
Формат/Информация : Digital Theater Systems
Профиль формата : MA / Core
Идентификатор кодека : A_DTS
Продолжительность : 1 ч. 43 м.
Вид битрейта : Переменный / Постоянный
Битрейт : 1069 Кбит/сек / 768 Кбит/сек
Каналы : 1 канал
Расположение каналов : Front: C
Частота : 48,0 КГц
Частота кадров : 93,750 кадра/сек (512 SPF)
Битовая глубина : 24 бит
Метод сжатия : Без потерь / Lossy
Размер потока : 790 Мбайт (3%)
Язык : English
Default : Нет
Forced : Нет

Текст #1
Идентификатор : 4
Формат : UTF-8
Идентификатор кодека : S_TEXT/UTF8
Идентификатор кодека/Информация : UTF-8 Plain Text
Продолжительность : 1 ч. 38 м.
Битрейт : 25 бит/сек
ElementCount : 453
Размер потока : 18,1 Кбайт (0%)
Заголовок : je_koro
Язык : Russian
Default : Нет
Forced : Нет

Текст #2
Идентификатор : 5
Формат : UTF-8
Идентификатор кодека : S_TEXT/UTF8
Идентификатор кодека/Информация : UTF-8 Plain Text
Продолжительность : 1 ч. 40 м.
Битрейт : 26 бит/сек
ElementCount : 747
Размер потока : 19,2 Кбайт (0%)
Заголовок : SDH
Язык : English
Default : Нет
Forced : Нет

Текст #3
Идентификатор : 6
Формат : PGS
Идентификатор кодека : S_HDMV/PGS
Идентификатор кодека/Информация : Picture based subtitle format used on BDs/HD-DVDs
Продолжительность : 1 ч. 40 м.
Битрейт : 22,6 Кбит/сек
ElementCount : 1494
Размер потока : 16,2 Мбайт (0%)
Заголовок : SDH
Язык : English
Default : Нет
Forced : Нет

Меню
00:00:00.000 : en:About the Restoration
00:01:21.498 : en:Opening Credits
00:01:48.525 : en:Unwelcome
00:05:21.238 : en:Court Date
00:13:44.198 : en:Low on Cash
00:21:12.146 : en:Wandering
00:25:48.714 : en:Closed
00:32:34.494 : en:Three Hamburgers
00:41:33.700 : en:On the Lookout
00:47:57.124 : en:A Big Chance
00:54:17.880 : en:Sunset
01:01:09.207 : en:“No Questions”
01:08:10.628 : en:Bad Boy
01:14:04.523 : en:The Plan
01:19:15.334 : en:partner in Crime
01:22:53.552 : en:Lost
01:27:43.800 : en:A Holdup
01:32:12.360 : en:Enough
01:36:41.879 : en:“Honey”
01:42:10.750 : en:End Credits
ЦитатаКто-то писал:
В озвучке фильма приняли участие sedate, porvaliparus, dmyan, О. Воротилин
 

Вложения

  • 68,6 KB Просмотры: 1
    Личеров 0
    Сидеров 0
    Файлов 1
    Объем 27,1 GB

Привет!

Мы группа людей которые решили помочь другим в решении их проблем, а так же пользователям с поиском самых свежих и качественных инфопродуктов. За 4 с небольшим месяца мы создали этот форум на который заходят ежедневно тысячи человек и посещаемость постоянно растёт. Мы создали панель лицензирования для защиты PHP скриптов от воровства и SEO панель для мониторинга наших сайтов и выбора верной стратегии их развития. Мы надеемся что то что мы создали пригодится Вам и возможно Вы поможете нам развиваться и совершенствоваться вместе с Вами.

Статистика форума

Темы
404.614
Сообщения
461.523
Пользователи
80.369
Новый пользователь
Карина1213

Приложения форума для iOS и Android


У ркн там нет власти ;)
Приватные разговоры
Помощь Пользователи
    Вы не присоединились ни к одной комнате.