За последнюю неделю опубликовано 195 новых материалов.
Инструкция новичку Путеводитель по форуму Прокси для Telegram Показать подсказки , это бомба!

Скачать Валерий Ободзинский - Листопад - Золотая коллекция Ретро (2006) APE by гаврила бесплатно через торрент

  • Поучаствуй (в качестве покупателя) в любых пяти совместных покупках (кроме завершённых и "Моментальных") и получи группу "Новичок" навсегда -> ссылка на раздел
  • Получай до 480 рублей за каждого приглашенного пользователя!
    представляем Вам очередное расширение партнерской программы, подробности описаны тут -> ссылка
  • 90% материалов доступно к скачиванию после простой регистрации!
    Если же ты хочешь скачивать материалы без требования оставлять отзывы то получи группу "Новичок", 10 способов повышения описаны тут -> ссылка
  • К сожалению количество битых ссылок растет и мы уже не можем их оперативно восстанавливать поэтому просим помощи у каждого нашего пользователя.
    С сегодняшнего дня, за каждую восстановленную ссылку мы заплатим Вам.
    Подробнее тут -> ссылка
  • Перенесем твои заслуги с другого ресурса!
    Мы понимаем как сложно прокачивать аккаунты на форумах, вроде раскачал аккаунт, а тут появляется ресурс в 100 раз круче но тоже с системой прокачки и снова качать аккаунт...
    Предлагаем вам перенести Ваши заслуги на другом подобном ресурсе к нам.
    Подробности описаны тут -> ссылка
  • Вы можете получать по 2.5% с каждой покупки и продажи на маркете! Подробности в теме Партнёрская программа

Torrent_Bot

Торрент-Бот
Бот форума
4 Окт 2016
124
93
20
Трэклист:
1. Уходят любимые (Е.Адлер - Л.Дербенёв)
2. Спасибо тебе за любовь (Л.Гарин - А.Поперечный)
3. Одно и то же (А.Днепров - В.Харитонов)
4. Невозможно (Б.Рычков - В.Харитонов)
5. Подожди (С.Мелик - О.Гаджикасимов)
6. Мне снится море (Je Reve La Mer) (Братья Рахбани(Rahbany Assy) - О.Гаджикасимов)
7. Мелодия (А.Пахмутова - Н.Добронравов)
8. Белые крылья (В.Шаинский - В.Харитонов)
9. Я верну тебя (Г.Гаспарян - А.Дементьев)
10. Только "да" (Б.Ренский - П.Леонидов)
11. Колдовство (А.Флярковский - Л.Дербенёв)
12. Прощание с любимой (Ю.Саульский - Г.Поженян)
13. Небо моё (А.Зацепин - Л.Дербенёв)
14. Отведу твою беду (В.Мигуля - И.Гончарова)
15. Старый спор (Э.Салихов - О.Гаджикасимов)
16. Первый прыжок (А.Зацепин - Л.Дербенёв)
17. Не грусти (Э.Масиас - О.Гаджикасимов)
18. Листопад (Д.Тухманов - В.Харитонов)
19. Песня из к/ф "Раба любви" (Э.Артемьев - Н.Кончаловская)

Жанр:Retro
Год выпуска диска: 2006
Производитель диска: Россия
Аудио кодек: APE
Тип рипа: image+.cue
Битрейт аудио: lossless

Exact Audio Copy V0.99 prebeta 4 from 23. January 2008
Отчёт EAC об извлечении, выполненном 27. августа 2008, 17:47
Валерий Ободзинский / Листопад - Золотая коллекция ретро
Дисковод: Optiarc DVD RW AD-5170A Adapter: 0 ID: 0
Режим чтения : Достоверность
Использование точного потока : Да
Отключение кэша аудио : Да
Использование указателей C2 : Нет
Коррекция смещения при чтении : 48
Способность читать области Lead-in и Lead-out : Нет
Заполнение пропущенных сэмплов тишиной : Да
Удаление блоков с тишиной в начале и конце : Нет
При вычислениях CRC использовались нулевые сэмплы : Да
Интерфейс : Встроенный Win32-интерфейс для Win NT/2000
Выходной формат : Внутренние WAV-операции
Формат сэмплов : 44.100 Гц; 16 бит; стерео
TOC извлечённого CD
Трек | Старт | Длительность | Начальный сектор | Конечный сектор
---------------------------------------------------------------------
1 | 0:00.00 | 2:40.40 | 0 | 12039
2 | 2:40.40 | 4:11.23 | 12040 | 30887
3 | 6:51.63 | 2:27.06 | 30888 | 41918
4 | 9:18.69 | 4:02.07 | 41919 | 60075
5 | 13:21.01 | 3:24.68 | 60076 | 75443
6 | 16:45.69 | 2:46.00 | 75444 | 87893
7 | 19:31.69 | 4:22.63 | 87894 | 107606
8 | 23:54.57 | 3:53.10 | 107607 | 125091
9 | 27:47.67 | 3:50.60 | 125092 | 142401
10 | 31:38.52 | 4:25.70 | 142402 | 162346
11 | 36:04.47 | 3:08.62 | 162347 | 176508
12 | 39:13.34 | 3:03.60 | 176509 | 190293
13 | 42:17.19 | 4:42.63 | 190294 | 211506
14 | 47:00.07 | 3:53.45 | 211507 | 229026
15 | 50:53.52 | 3:02.54 | 229027 | 242730
16 | 53:56.31 | 4:54.35 | 242731 | 264815
17 | 58:50.66 | 2:52.37 | 264816 | 277752
18 | 61:43.28 | 3:05.19 | 277753 | 291646
19 | 64:48.47 | 5:48.32 | 291647 | 317778
Характеристики диапазона извлечения и сообщения об ошибках
Выбранный диапазон
Имя файла D:AudioВ.ОбодзинскийЛистопад (ЗКР)Валерий Ободзинский - Листопад - Золотая коллекция ретро.wav
Пиковый уровень 100.0 %
Качество диапазона 100.0 %
CRC копии DCFB668B
Копирование... OK
Ошибок не произошло
Конец отчёта
Продолжительность: 70м 39с
 

Вложения

  • 16,8 KB Просмотры: 1
    Личеров 0
    Сидеров 0
    Файлов 9
    Объем 385,7 MB
Ваш e-mail не будет опубликован. Он потребуется для подтверждения Вашего поста.
Оформление текста Нажмите «Ввод», чтобы отправить ответ.

Привет!

Мы группа людей которые решили помочь другим в решении их проблем, а так же пользователям с поиском самых свежих и качественных инфопродуктов. За 4 с небольшим месяца мы создали этот форум на который заходят ежедневно тысячи человек и посещаемость постоянно растёт. Мы создали панель лицензирования для защиты PHP скриптов от воровства и SEO панель для мониторинга наших сайтов и выбора верной стратегии их развития. Мы надеемся что то что мы создали пригодится Вам и возможно Вы поможете нам развиваться и совершенствоваться вместе с Вами.

Статистика форума

Темы
378.666
Сообщения
417.747
Пользователи
49.113
Новый пользователь
Мария5555578

Приложения форума для iOS и Android


У ркн там нет власти ;)
Приватные разговоры
Помощь Пользователи
    Вы не присоединились ни к одной комнате.