За последнюю неделю опубликовано 46 новых материалов.
Инструкция новичку Путеводитель по форуму Прокси для Telegram Показать подсказки , это бомба!

Скачать В тесноте да не в обиде (2015) SATRip бесплатно через торрент

  • Поучаствуй (в качестве покупателя) в любых пяти совместных покупках (кроме завершённых и "Моментальных") и получи группу "Новичок" навсегда -> ссылка на раздел
  • Получай до 480 рублей за каждого приглашенного пользователя!
    представляем Вам очередное расширение партнерской программы, подробности описаны тут -> ссылка
  • 90% материалов доступно к скачиванию после простой регистрации!
    Если же ты хочешь скачивать материалы без требования оставлять отзывы то получи группу "Новичок", 10 способов повышения описаны тут -> ссылка
  • К сожалению количество битых ссылок растет и мы уже не можем их оперативно восстанавливать поэтому просим помощи у каждого нашего пользователя.
    С сегодняшнего дня, за каждую восстановленную ссылку мы заплатим Вам.
    Подробнее тут -> ссылка
  • Перенесем твои заслуги с другого ресурса!
    Мы понимаем как сложно прокачивать аккаунты на форумах, вроде раскачал аккаунт, а тут появляется ресурс в 100 раз круче но тоже с системой прокачки и снова качать аккаунт...
    Предлагаем вам перенести Ваши заслуги на другом подобном ресурсе к нам.
    Подробности описаны тут -> ссылка
  • Вы можете получать по 2.5% с каждой покупки и продажи на маркете! Подробности в теме Партнёрская программа
Если Вы не хотите скачивать, Вы всегда можетепосмотретьонлайн, просто нажмите кнопку ниже :

Открыть плеер

Torrent_Bot

Торрент-Бот
Бот форума
4 Окт 2016
91
163
20
Информация о фильме
Название: В тесноте да не в обиде
Год выхода: 2015
Жанр: Мелодрама
Режиссер: Александр Кананович
В ролях: Валерия Арланова, Руслан Чернецкий, Максим Мельничук, Вероника Савичева, Ирина Шевчук, Владимир Мищанчук, Николай Кучиц

О фильме:
Семья Смирновых когда-то была любящей и дружной. Муж, жена, двое детей – что еще нужно для счастья? Но постепенно все пошло наперекосяк. Жена постоянно ругается с мужем, дело доходит до развода. И они бы развелись, если бы подвернулся хоть какой-нибудь вариант с разменом жилья. Но крошечную квартирку разменять невозможно.
Однажды, во время очередной перебранки, семья получает известие, что к ним едет погостить состоятельная тетушка Василиса Кузьминична (тетя Вася), которая на старости лет решила объехать всю свою родню, чтобы найти идеальную семью. Только такой семье эксцентричная тетушка готова завещать все, что у нее есть. Смирновы решают разыграть «комедию для тети» и побыть пару дней идеальной семьей. Ради наследства можно и постараться, ведь это решит их жилищные проблемы.


Страна: Россия
Продолжительность: 01:45:10
Перевод: Не требуется

Файл
Кодек: XviD
Качество: SATRip
Видео: 720x400 25.00fps 1800kbps
Звук: 48000Hz stereo 192kbps

Скриншоты

MediaInfo
Общее
Полное имя : D:V.Tesnote.Da.Ne.V.Obide.SATRip.avi
Формат : AVI
Формат/Информация : Audio Video Interleave
Размер файла : 1,27 Гбайт
Продолжительность : 1 ч. 30 м.
Общий поток : 2002 Кбит/сек
Программа кодирования : VirtualDubMod 1.5.10.3 | www.virtualdub-fr.org || (build 2550/release)
Библиотека кодирования : VirtualDubMod build 2550/release

Видео
Идентификатор : 0
Формат : MPEG-4 Visual
Профиль формата : Advanced [email protected]
Параметр BVOP формата : 2
Параметр QPel формата : Нет
Параметр GMC формата : Без точки перехода
Параметр матрицы формата : Default (H.263)
Идентификатор кодека : XVID
Идентификатор кодека/Подсказка : XviD
Продолжительность : 1 ч. 30 м.
Битрейт : 1800 Кбит/сек
Ширина : 720 пикселей
Высота : 400 пикселей
Соотношение сторон : 16:9
Частота кадров : 25,000 кадров/сек
Цветовое пространство : YUV
Субдискретизация насыщенности : 4:2:0
Битовая глубина : 8 бит
Тип развёртки : Прогрессивная
Метод сжатия : С потерями
Бит/(Пиксели*Кадры) : 0.250
Размер потока : 1,14 Гбайт (90%)
Библиотека кодирования : XviD 1.2.1 (UTC 2008-12-04)

Аудио
Идентификатор : 1
Формат : AC-3
Формат/Информация : Audio Coding 3
Расширение режима : CM (complete main)
Параметр Endianness формата : Big
Идентификатор кодека : 2000
Продолжительность : 1 ч. 30 м.
Вид битрейта : Постоянный
Битрейт : 192 Кбит/сек
Каналы : 2 канала
Расположение каналов : Front: L R
Частота : 48,0 КГц
Метод сжатия : С потерями
Размер потока : 124 Мбайт (10%)
Выравнивание : Разделение по промежуткам
Продолжительность промежутка : 40 мс. (1,00 видеокадр)
Время предзагрузки промежутка : 500 мс.

Релиз от:
 

Вложения

  • 15,9 KB Просмотры: 1
    Личеров 0
    Сидеров 0
    Файлов 1
    Объем 1,5 GB

Привет!

Мы группа людей которые решили помочь другим в решении их проблем, а так же пользователям с поиском самых свежих и качественных инфопродуктов. За 4 с небольшим месяца мы создали этот форум на который заходят ежедневно тысячи человек и посещаемость постоянно растёт. Мы создали панель лицензирования для защиты PHP скриптов от воровства и SEO панель для мониторинга наших сайтов и выбора верной стратегии их развития. Мы надеемся что то что мы создали пригодится Вам и возможно Вы поможете нам развиваться и совершенствоваться вместе с Вами.

Статистика форума

Темы
410.521
Сообщения
469.056
Пользователи
85.938
Новый пользователь
tatarstroy

Приложения форума для iOS и Android


У ркн там нет власти ;)
Приватные разговоры
Помощь Пользователи
    Вы не присоединились ни к одной комнате.