За последнюю неделю опубликовано 63 новых материалов.
Инструкция новичку Путеводитель по форуму Прокси для Telegram Показать подсказки , это бомба!

Скачать В стране женщин / In the Land of Women (2007) WEB-DL 1080p | D | Open Matte бесплатно через торрент

  • Поучаствуй (в качестве покупателя) в любых пяти совместных покупках (кроме завершённых и "Моментальных") и получи группу "Новичок" навсегда -> ссылка на раздел
  • Получай до 480 рублей за каждого приглашенного пользователя!
    представляем Вам очередное расширение партнерской программы, подробности описаны тут -> ссылка
  • 90% материалов доступно к скачиванию после простой регистрации!
    Если же ты хочешь скачивать материалы без требования оставлять отзывы то получи группу "Новичок", 10 способов повышения описаны тут -> ссылка
  • К сожалению количество битых ссылок растет и мы уже не можем их оперативно восстанавливать поэтому просим помощи у каждого нашего пользователя.
    С сегодняшнего дня, за каждую восстановленную ссылку мы заплатим Вам.
    Подробнее тут -> ссылка
  • Перенесем твои заслуги с другого ресурса!
    Мы понимаем как сложно прокачивать аккаунты на форумах, вроде раскачал аккаунт, а тут появляется ресурс в 100 раз круче но тоже с системой прокачки и снова качать аккаунт...
    Предлагаем вам перенести Ваши заслуги на другом подобном ресурсе к нам.
    Подробности описаны тут -> ссылка
  • Вы можете получать по 2.5% с каждой покупки и продажи на маркете! Подробности в теме Партнёрская программа
Если Вы не хотите скачивать, Вы всегда можетепосмотретьонлайн, просто нажмите кнопку ниже :

Открыть плеер

Torrent_Bot

Торрент-Бот
Бот форума
4 Окт 2016
92
160
20



Название: В стране женщин
Оригинальное название: In the Land of Women
Год выхода: 2007
Жанр: драма, мелодрама, комедия
Режиссер: Джон Кэздан
В ролях: Адам Броди, Кристен Стюарт, Мег Райан, Макензи Вега, Олимпия Дукакис, ДжоБет Уильямс, Елена Анайя, Кларк Грегг, Джиннифер Гудвин, Джина Мантенья

О фильме:
После разрыва бурного романа с известной актрисой, молодой романтичный сценарист уезжает в пригород Детройта к любимой бабушке, чтобы вернуть душевное равновесие. По соседству с бабушкой живет миловидная женщина с двумя дочерьми, которая все чаще наведывается к ним на чай. Здесь, в царстве женщин, где господствуют заманчивые мечтания и соблазнительные идеи, все побеждает, все покрывает вечная любовь…



Страна: США
Выпущено: Warner Bros, Anonymous Content, Castle Rock Entertainment, Land Films Inc
Продолжительность: 01:38:12
Перевод: Дублированный

Формат: MKV
Качество: WEB-DL 1080p
Видео: AVC/H.264, 1920x1080, 23.976 fps, 7498 Kbps
Аудио 1: AC3, 6 ch, 448 Kbps - Русский (DUB)
Аудио 2: E-AC3, 6 ch, 640 Kbps - Английский
Субтитры: русские, английские

MediaInfo
General
Unique ID : 333326043514002601151649821283872895426 (0xFAC442C6B91DD439EC843B8CFC5771C2)
Complete name : D:In.the.Land.of.Women.2007.Open.Matte.1080p.WEB-DL.Rus.Eng.TeamHD.mkv
Format : Matroska
Format version : Version 4
File size : 5.89 GiB
Duration : 1 h 38 min
Overall bit rate : 8 588 kb/s
Encoded date : UTC 2020-06-16 14:44:19
Writing application : mkvmerge v46.0.0 ('No Deeper Escape') 64-bit
Writing library : libebml v1.3.10 + libmatroska v1.5.2

Video
ID : 1
Format : AVC
Format/Info : Advanced Video Codec
Format profile : [email protected]
Format settings : CABAC / 4 Ref Frames
Format settings, CABAC : Yes
Format settings, Reference : 4 frames
Codec ID : V_MPEG4/ISO/AVC
Duration : 1 h 38 min
Bit rate : 7 498 kb/s
Width : 1 920 pixels
Height : 1 080 pixels
Display aspect ratio : 16:9
Frame rate mode : Constant
Frame rate : 23.976 (24000/1001) FPS
Color space : YUV
Chroma subsampling : 4:2:0
Bit depth : 8 bits
Scan type : Progressive
Bits/(Pixel*Frame) : 0.151
Stream size : 5.14 GiB (87%)
Language : English
Default : Yes
Forced : No
Color range : Limited
Color primaries : BT.709
Transfer characteristics : BT.709
Matrix coefficients : BT.709

Audio #1
ID : 2
Format : AC-3
Format/Info : Audio Coding 3
Commercial name : Dolby Digital
Codec ID : A_AC3
Duration : 1 h 38 min
Bit rate mode : Constant
Bit rate : 448 kb/s
Channel(s) : 6 channels
Channel layout : L R C LFE Ls Rs
Sampling rate : 48.0 kHz
Frame rate : 31.250 FPS (1536 SPF)
Bit depth : 16 bits
Compression mode : Lossy
Stream size : 315 MiB (5%)
Language : Russian
Service kind : Complete Main
Default : Yes
Forced : No

Audio #2
ID : 3
Format : E-AC-3
Format/Info : Enhanced AC-3
Commercial name : Dolby Digital Plus
Codec ID : A_EAC3
Duration : 1 h 38 min
Bit rate mode : Constant
Bit rate : 640 kb/s
Channel(s) : 6 channels
Channel layout : L R C LFE Ls Rs
Sampling rate : 48.0 kHz
Frame rate : 31.250 FPS (1536 SPF)
Compression mode : Lossy
Stream size : 450 MiB (7%)
Language : English
Service kind : Complete Main
Default : No
Forced : No

Text #1
ID : 4
Format : UTF-8
Codec ID : S_TEXT/UTF8
Codec ID/Info : UTF-8 Plain Text
Duration : 1 h 32 min
Bit rate : 89 b/s
Count of elements : 1095
Stream size : 60.7 KiB (0%)
Language : Russian
Default : No
Forced : No

Text #2
ID : 5
Format : UTF-8
Codec ID : S_TEXT/UTF8
Codec ID/Info : UTF-8 Plain Text
Duration : 1 h 35 min
Bit rate : 69 b/s
Count of elements : 1694
Stream size : 48.2 KiB (0%)
Language : English
Default : No
Forced : No
Примечание & Сравнения:
Исходник видео WEB-DL Amazon.
Open Matte-версия фильма имеет большее наполнение кадра по сравнению с Blu-ray.
Релиз: TeamHD maksnew



Скриншоты
 

Вложения

  • 15,7 KB Просмотры: 0
    Личеров 0
    Сидеров 0
    Файлов 1
    Объем 5,9 GB

Привет!

Мы группа людей которые решили помочь другим в решении их проблем, а так же пользователям с поиском самых свежих и качественных инфопродуктов. За 4 с небольшим месяца мы создали этот форум на который заходят ежедневно тысячи человек и посещаемость постоянно растёт. Мы создали панель лицензирования для защиты PHP скриптов от воровства и SEO панель для мониторинга наших сайтов и выбора верной стратегии их развития. Мы надеемся что то что мы создали пригодится Вам и возможно Вы поможете нам развиваться и совершенствоваться вместе с Вами.

Статистика форума

Темы
406.656
Сообщения
465.106
Пользователи
84.674
Новый пользователь
Юрий 1990

Приложения форума для iOS и Android


У ркн там нет власти ;)
Приватные разговоры
Помощь Пользователи
    Вы не присоединились ни к одной комнате.