За последнюю неделю опубликовано 160 новых материалов.
Инструкция новичку Путеводитель по форуму Прокси для Telegram Показать подсказки , это бомба!

Скачать В подземелье я пойду, там красавицу найду! / Dungeon ni Deai o Motomeru [S02] (2019) WEB-DLRip от Deadmauvlad | D | Wakanim бесплатно через торрент

  • Поучаствуй (в качестве покупателя) в любых пяти совместных покупках (кроме завершённых и "Моментальных") и получи группу "Новичок" навсегда -> ссылка на раздел
  • Получай до 480 рублей за каждого приглашенного пользователя!
    представляем Вам очередное расширение партнерской программы, подробности описаны тут -> ссылка
  • 90% материалов доступно к скачиванию после простой регистрации!
    Если же ты хочешь скачивать материалы без требования оставлять отзывы то получи группу "Новичок", 10 способов повышения описаны тут -> ссылка
  • К сожалению количество битых ссылок растет и мы уже не можем их оперативно восстанавливать поэтому просим помощи у каждого нашего пользователя.
    С сегодняшнего дня, за каждую восстановленную ссылку мы заплатим Вам.
    Подробнее тут -> ссылка
  • Перенесем твои заслуги с другого ресурса!
    Мы понимаем как сложно прокачивать аккаунты на форумах, вроде раскачал аккаунт, а тут появляется ресурс в 100 раз круче но тоже с системой прокачки и снова качать аккаунт...
    Предлагаем вам перенести Ваши заслуги на другом подобном ресурсе к нам.
    Подробности описаны тут -> ссылка
  • Вы можете получать по 2.5% с каждой покупки и продажи на маркете! Подробности в теме Партнёрская программа

Torrent_Bot

Торрент-Бот
Бот форума
4 Окт 2016
124
93
20


Dungeon ni Deai o Motomeru no wa Machigatte Iru Darouka II | Разве плохо искать себе пару в подземелье [ТВ-2] | DanMachi II
Год выхода: 2019
Жанр: приключения, фэнтези
Режиссер: Татибана Хидэки
Продолжительность: 12 x ~ 00:25:00

Страна: Япония,
Студия: J.C. Staff
Перевод : Профессиональный (дублированный) | Wakanim
Субтитры: Русский Хардсаб (надписи)

Описание:
Орарио. Город, ставший домом для многих богов, знаменитый своим подземельем, которое ведёт к неизведанным глубинам. Богиня Гестия всё так же заботится о своём единственном подопечном — начинающем авантюристе Белле Кранеле. Но теперь на юношу, которому быстрее всех на свете покорился второй уровень, многие смотрят с интересом. Значит, впереди героя ждут лабиринт, встречи и, конечно, приключения, а богине предстоит сложить «Миф о семействе».



Качество видео: WEB-DLRip [Исходник WEB-DL 1080p by MoscowGolem]
Формат: AVI
Видео кодек: XviD
Аудио кодек: AC3
Видео: XviD, 720x400 (16:9), 23.976 fps, 1496 Кбит/сек (0.217 bit/pixel)
Аудио #1: AC-3, 48,0 КГц, 2 ch, 192 Кбит/сек, CBR | | Озвучка от Wakanim
Аудио #2: AC-3, 48,0 КГц, 2 ch, 192 Кбит/сек, CBR | | Орининал

MediaInfo
Общее
Полное имя : В.подземелье.я.пойду.там.красавицу найду! .S02.2019.RUS.Jap.WEB-DLRip.Deadmauvlad.Ep.01.avi
Формат : AVI
Формат/Информация : Audio Video Interleave
Размер файла : 321 Мбайт
Продолжительность : 23 м. 42 с.
Общий поток : 1895 Кбит/сек
Название фильма : В.подземелье.я.пойду.там.красавицу найду! .S02.2019.RUS.Jap.WEB-DLRip.Deadmauvlad.Ep.01
Режиссёр : Encoder by Deadmauvlad
Жанр : приключения, фэнтези
Программа кодирования : VirtualDubMod 1.5.10.3 | www.virtualdub-fr.org || (build 2550/release)
Формат оригинала/Имя : Anime
Авторское право : Encoder by Deadmauvlad
Примечание : Encoder by Deadmauvlad

Видео
Идентификатор : 0
Формат : MPEG-4 Visual
Профиль формата : Advanced Simple@L5
Настройки формата : BVOP1 / Custom Matrix
Параметр BVOP формата : 1
Параметр QPel формата : Нет
Параметр GMC формата : Без точки перехода
Параметр матрицы формата : Выборочная
Идентификатор кодека : XVID
Идентификатор кодека/Подсказка : XviD
Продолжительность : 23 м. 42 с.
Битрейт : 1496 Кбит/сек
Ширина : 720 пикселей
Высота : 400 пикселей
Соотношение сторон : 16:9
Частота кадров : 23,976 (24000/1001) кадра/сек
Цветовое пространство : YUV
Субдискретизация насыщенности : 4:2:0
Битовая глубина : 8 бит
Тип развёртки : Прогрессивная
Метод сжатия : С потерями
Бит/(Пиксели*Кадры) : 0.217
Размер потока : 254 Мбайт (79%)
Библиотека кодирования : XviD 73

Аудио #1
Идентификатор : 1
Формат : AC-3
Формат/Информация : Audio Coding 3
Коммерческое название : Dolby Digital
Идентификатор кодека : 2000
Продолжительность : 23 м. 42 с.
Вид битрейта : Постоянный
Битрейт : 192 Кбит/сек
Каналы : 2 канала
Channel layout : L R
Частота : 48,0 КГц
Частота кадров : 31,250 кадров/сек (1536 SPF)
Битовая глубина : 16 бит
Метод сжатия : С потерями
Размер потока : 32,6 Мбайт (10%)
Выравнивание : Разделение по промежуткам
Продолжительность промежутка : 42 мс. (1,00 видеокадр)
Время предзагрузки промежутка : 500 мс.

Аудио #2
Идентификатор : 2
Формат : AC-3
Формат/Информация : Audio Coding 3
Коммерческое название : Dolby Digital
Идентификатор кодека : 2000
Продолжительность : 23 м. 42 с.
Вид битрейта : Постоянный
Битрейт : 192 Кбит/сек
Каналы : 2 канала
Channel layout : L R
Частота : 48,0 КГц
Частота кадров : 31,250 кадров/сек (1536 SPF)
Битовая глубина : 16 бит
Метод сжатия : С потерями
Размер потока : 32,6 Мбайт (10%)
Выравнивание : Разделение по промежуткам
Продолжительность промежутка : 42 мс. (1,00 видеокадр)
Время предзагрузки промежутка : 500 мс.

Список эпизодов
01. Праздничный вечер. Бал богов
02. Аполлон. Бог солнца
03. Обращение. Собрание
04. Военная игра
05. Дом. Особняк Гестии
06. Семейство Иштар. Город любви
07. Ренар. Девушка-лисица
08. Хрупкая мечта. Смертоносный камень
09. Берберы. Воинственные блудницы
10. Аргонавт. Страстное желание героя
11. Ракия. Поход
12. Песня любви. Богиня и последователь


Скриншоты
 

Вложения

  • 22 KB Просмотры: 0
    Личеров 0
    Сидеров 0
    Файлов 12
    Объем 3,8 GB
Ваш e-mail не будет опубликован. Он потребуется для подтверждения Вашего поста.
Оформление текста Нажмите «Ввод», чтобы отправить ответ.

Привет!

Мы группа людей которые решили помочь другим в решении их проблем, а так же пользователям с поиском самых свежих и качественных инфопродуктов. За 4 с небольшим месяца мы создали этот форум на который заходят ежедневно тысячи человек и посещаемость постоянно растёт. Мы создали панель лицензирования для защиты PHP скриптов от воровства и SEO панель для мониторинга наших сайтов и выбора верной стратегии их развития. Мы надеемся что то что мы создали пригодится Вам и возможно Вы поможете нам развиваться и совершенствоваться вместе с Вами.

Статистика форума

Темы
378.666
Сообщения
417.818
Пользователи
49.281
Новый пользователь
emi

Приложения форума для iOS и Android


У ркн там нет власти ;)
Приватные разговоры
Помощь Пользователи
    Вы не присоединились ни к одной комнате.