За последнюю неделю опубликовано 21 новых материалов.
Инструкция новичку Путеводитель по форуму Прокси для Telegram Показать подсказки , это бомба!

Скачать В подземелье я пойду, там красавицу найду! / Dungeon ni Deai o Motomeru [S02] (2019) WEB-DL 1080p | D | Wakanim бесплатно через торрент

  • Поучаствуй (в качестве покупателя) в любых пяти совместных покупках (кроме завершённых и "Моментальных") и получи группу "Новичок" навсегда -> ссылка на раздел
  • Получай до 480 рублей за каждого приглашенного пользователя!
    представляем Вам очередное расширение партнерской программы, подробности описаны тут -> ссылка
  • 90% материалов доступно к скачиванию после простой регистрации!
    Если же ты хочешь скачивать материалы без требования оставлять отзывы то получи группу "Новичок", 10 способов повышения описаны тут -> ссылка
  • К сожалению количество битых ссылок растет и мы уже не можем их оперативно восстанавливать поэтому просим помощи у каждого нашего пользователя.
    С сегодняшнего дня, за каждую восстановленную ссылку мы заплатим Вам.
    Подробнее тут -> ссылка
  • Перенесем твои заслуги с другого ресурса!
    Мы понимаем как сложно прокачивать аккаунты на форумах, вроде раскачал аккаунт, а тут появляется ресурс в 100 раз круче но тоже с системой прокачки и снова качать аккаунт...
    Предлагаем вам перенести Ваши заслуги на другом подобном ресурсе к нам.
    Подробности описаны тут -> ссылка
  • Вы можете получать по 2.5% с каждой покупки и продажи на маркете! Подробности в теме Партнёрская программа

Torrent_Bot

Торрент-Бот
Бот форума
4 Окт 2016
122
116
20



Название: В подземелье я пойду, там красавицу найду!
Год выхода: 2019
Жанр: приключения, фэнтези, романтика
Режиссер: Татибана Хидэки

Описание:
Орарио. Город, ставший домом для многих богов, знаменитый своим подземельем, которое ведёт к неизведанным глубинам. Богиня Гестия всё так же заботится о своём единственном подопечном — начинающем авантюристе Белле Кранеле. Но теперь на юношу, которому быстрее всех на свете покорился второй уровень, многие смотрят с интересом. Значит, впереди героя ждут лабиринт, встречи и, конечно, приключения, а богине предстоит сложить «Миф о семействе».



Страна: Япония
Студия: J.C. Staff
Продолжительность: 12 эпизодов по 25 минут
Перевод: Профессиональный (дублированный) | Wakanim

Файл
Кодек: x264
Качество: WEB-DL
Видео: x264, 1920x1080, ~4 254 kbps, 23.976 fps
Аудио #1: AAC, 128 kbps, 44.1 kHz, 2 ch
Аудио #2: AAC, 192 kbps, 48.0 kHz, 2 ch
Субтитры: Нет

Эпизоды:
Серия 1: Праздничный вечер. Бал богов
Серия 2: Аполлон. Бог солнца
Серия 3: Обращение. Собрание
Серия 4: Военная игра
Серия 5: Дом. Особняк Гестии
Серия 6: Семейство Иштар. Город любви
Серия 7: Ренар. Девушка-лисица
Серия 8: Хрупкая мечта. Смертоносный камень
Серия 9: Берберы. Воинственные блудницы
Серия 10: Аргонавт. Страстное желание героя
Серия 11: Ракия. Поход
Серия 12: Песня любви. Богиня и последователь

MediaInfo
General
Unique ID : 6026183210137156188059281082656843830 (0x48899C5798E06074872955071996836)
Complete name : DanMachi S2 [Wakanim][Wakanim] DanMachi S2 - 01 [1080p].mkv
Format : Matroska
Format version : Version 4
File size : 800 MiB
Duration : 24 min 26 s
Overall bit rate : 4 574 kb/s
Encoded date : UTC 2019-07-13 04:26:03
Writing application : mkvmerge v35.0.0 ('All The Love In The World') 64-bit
Writing library : libebml v1.3.9 + libmatroska v1.5.2

Video
ID : 1
Format : AVC
Format/Info : Advanced Video Codec
Format profile : High@L4
Format settings : CABAC / 4 Ref Frames
Format settings, CABAC : Yes
Format settings, Reference : 4 frames
Codec ID : V_MPEG4/ISO/AVC
Duration : 24 min 26 s
Bit rate : 4 254 kb/s
Width : 1 920 pixels
Height : 1 080 pixels
Display aspect ratio : 16:9
Frame rate mode : Constant
Frame rate : 23.976 (24000/1001) FPS
Color space : YUV
Chroma subsampling : 4:2:0
Bit depth : 8 bits
Scan type : Progressive
Bits/(Pixel*Frame) : 0.086
Stream size : 744 MiB (93%)
Writing library : x264 core 142
Encoding settings : cabac=1 / ref=4 / deblock=1:1:1 / analyse=0x3:0x113 / me=umh / subme=8 / psy=1 / psy_rd=0.40:0.00 / mixed_ref=1 / me_range=16 / chroma_me=1 / trellis=1 / 8x8dct=1 / cqm=0 / deadzone=21,11 / fast_pskip=1 / chroma_qp_offset=-2 / threads=12 / lookahead_threads=2 / sliced_threads=0 / nr=0 / decimate=1 / interlaced=0 / bluray_compat=0 / constrained_intra=0 / bframes=3 / b_pyramid=2 / b_adapt=2 / b_bias=0 / direct=3 / weightb=1 / open_gop=0 / weightp=2 / keyint=96 / keyint_min=48 / scenecut=40 / intra_refresh=0 / rc_lookahead=48 / rc=crf / mbtree=1 / crf=15.0 / qcomp=0.60 / qpmin=0 / qpmax=69 / qpstep=4 / vbv_maxrate=8000 / vbv_bufsize=12000 / crf_max=0.0 / nal_hrd=none / filler=0 / ip_ratio=1.40 / aq=1:0.60
Default : Yes
Forced : No

Audio #1
ID : 2
Format : AAC LC
Format/Info : Advanced Audio Codec Low Complexity
Codec ID : A_AAC-2
Duration : 24 min 26 s
Bit rate : 192 kb/s
Channel(s) : 2 channels
Channel layout : L R
Sampling rate : 48.0 kHz
Frame rate : 46.875 FPS (1024 SPF)
Compression mode : Lossy
Delay relative to video : -83 ms
Stream size : 33.1 MiB (4%)
Language : Russian
Default : Yes
Forced : No

Audio #2
ID : 3
Format : AAC LC
Format/Info : Advanced Audio Codec Low Complexity
Codec ID : A_AAC-2
Duration : 24 min 26 s
Bit rate : 128 kb/s
Channel(s) : 2 channels
Channel layout : L R
Sampling rate : 44.1 kHz
Frame rate : 43.066 FPS (1024 SPF)
Compression mode : Lossy
Delay relative to video : -83 ms
Stream size : 22.4 MiB (3%)
Language : Japanese
Default : No
Forced : No
Скриншоты
 

Вложения

  • 141,4 KB Просмотры: 0
    Личеров 0
    Сидеров 0
    Файлов 12
    Объем 14 GB

Привет!

Мы группа людей которые решили помочь другим в решении их проблем, а так же пользователям с поиском самых свежих и качественных инфопродуктов. За 4 с небольшим месяца мы создали этот форум на который заходят ежедневно тысячи человек и посещаемость постоянно растёт. Мы создали панель лицензирования для защиты PHP скриптов от воровства и SEO панель для мониторинга наших сайтов и выбора верной стратегии их развития. Мы надеемся что то что мы создали пригодится Вам и возможно Вы поможете нам развиваться и совершенствоваться вместе с Вами.

Статистика форума

Темы
385.057
Сообщения
430.430
Пользователи
63.052
Новый пользователь
Tiger83

Приложения форума для iOS и Android


У ркн там нет власти ;)
Приватные разговоры
Помощь Пользователи
    Вы не присоединились ни к одной комнате.