За последнюю неделю опубликовано 29 новых материалов.
Инструкция новичку Путеводитель по форуму Прокси для Telegram Показать подсказки , это бомба!

Скачать В пасти безумия / In The Mouth Of Madness (1994) BDRip-HEVC 1080p от Cthulhu | P, P2, A бесплатно через торрент

  • Поучаствуй (в качестве покупателя) в любых пяти совместных покупках (кроме завершённых и "Моментальных") и получи группу "Новичок" навсегда -> ссылка на раздел
  • Получай до 480 рублей за каждого приглашенного пользователя!
    представляем Вам очередное расширение партнерской программы, подробности описаны тут -> ссылка
  • 90% материалов доступно к скачиванию после простой регистрации!
    Если же ты хочешь скачивать материалы без требования оставлять отзывы то получи группу "Новичок", 10 способов повышения описаны тут -> ссылка
  • К сожалению количество битых ссылок растет и мы уже не можем их оперативно восстанавливать поэтому просим помощи у каждого нашего пользователя.
    С сегодняшнего дня, за каждую восстановленную ссылку мы заплатим Вам.
    Подробнее тут -> ссылка
  • Перенесем твои заслуги с другого ресурса!
    Мы понимаем как сложно прокачивать аккаунты на форумах, вроде раскачал аккаунт, а тут появляется ресурс в 100 раз круче но тоже с системой прокачки и снова качать аккаунт...
    Предлагаем вам перенести Ваши заслуги на другом подобном ресурсе к нам.
    Подробности описаны тут -> ссылка
  • Вы можете получать по 2.5% с каждой покупки и продажи на маркете! Подробности в теме Партнёрская программа
Если Вы не хотите скачивать, Вы всегда можетепосмотретьонлайн, просто нажмите кнопку ниже :

Открыть плеер

Torrent_Bot

Торрент-Бот
Бот форума
4 Окт 2016
93
155
20

Информация о фильме
Название: В пасти безумия
Оригинальное название: In The Mouth Of Madness
Год выхода: 1994
Жанр: ужасы, фэнтези, триллер, детектив
Режиссер: Джон Карпентер
В ролях: Сэм Нилл, Джули Кармен, Юрген Прохнов, Дэвид Уорнер, Джон Гловер, Берни Кейси, Питер Джейсон, Чарлтон Хестон, Фрэнсис Бэй, Вильгельм фон Хомбург

О фильме:
Произведения Саттера Кэйна побили все рекорды популярности — Стивену Кингу такое не снилось. Эффект, производимый на некоторых почитателей таланта Кэйна, — полная дезориентация и потеря памяти, массовые вспышки насилия, шизофреники, переполнившие клиники. Сам же автор романов ужасов, приносящих бешеный доход издательствам, исчез уже два месяца тому назад. Для его поисков издательство нанимает страхового агента Джона Трента, и поиски приводят его в город, описанный в книге, но отсутствующий на карте.



Страна: США
Студия: New Line Cinema
Продолжительность: 01:35:22
Перевод: Профессиональный многоголосый, профессиональный двухголосый, авторский одноголосый

Файл
Кодек: HEVC x265
Качество: BDRip-HEVC 1080p
Видео: 1920x800 (2.40:1), 6196 Кбит/сек, 0.168 бит/(Пиксели*Кадры), 23.976 (24000/1001) кадр/сек, (Main10@L.4.1@High), 10 бит
Звук:
Аудио1: Русская, AC3 192 Кбит/сек, 2 канала(ов),16bit 48,0 КГц MVO НТВ
Аудио2: Русская, AC3 448 Кбит/сек, 6 канала(ов),16bit 48,0 КГц DVO Инис
Аудио3: Русская, AC3 448 Кбит/сек, 6 канала(ов),16bit 48,0 КГц AVO Гаврилов
Аудио4: Русская, AC3 192 Кбит/сек, 2 канала(ов),16bit 48,0 КГц AVO Сербин
Аудио5: English, AC3 448 Кбит/сек, 6 канала(ов),16bit 48,0 КГц
Субтитры: Русские, English
Навигация по главам: Есть

Mediainfo
General
Unique ID : 91859727761837732185629117027971843056 (0x451B8A3FEDCF4C161D7ADFADE42D43F0)
Complete name : F:HEVCIn The Mouth Of Madness (1994) BDRip 1080p [HEVC] 10Bit_Cthulhu.mkv
Format : Matroska
Format version : Version 4 / Version 2
File size : 5.28 GiB
Duration : 1 h 35 min
Overall bit rate : 7 928 kb/s
Movie name : rip_by_Cthulhu
Encoded date : UTC 2018-09-02 07:36:59
Writing application : mkvmerge v24.0.0 ('Beyond The Pale') 64-bit
Writing library : libebml v1.3.6 + libmatroska v1.4.9
Cover : Yes
Attachments : cover.jpg

Video
ID : 1
Format : HEVC
Format/Info : High Efficiency Video Coding
Format profile : Main 10@L4.1@High
Codec ID : V_MPEGH/ISO/HEVC
Duration : 1 h 35 min
Bit rate : 6 196 kb/s
Width : 1 920 pixels
Height : 800 pixels
Display aspect ratio : 2.40:1
Frame rate mode : Constant
Frame rate : 23.976 (24000/1001) FPS
Color space : YUV
Chroma subsampling : 4:2:0
Bit depth : 10 bits
Bits/(Pixel*Frame) : 0.168
Stream size : 4.13 GiB (78%)
Writing library : x265 2.8+49-5d34bbf671f7:[Windows][GCC 8.1.1][64 bit] 10bit
Encoding settings : cpuid=1176575 / frame-threads=4 / numa-pools=16 / wpp / no-pmode / no-pme / no-psnr / no-ssim / log-level=2 / input-csp=1 / input-res=1920x800 / interlace=0 / total-frames=137211 / level-idc=41 / high-tier=1 / uhd-bd=0 / ref=5 / no-allow-non-conformance / no-repeat-headers / annexb / no-aud / no-hrd / info / hash=0 / no-temporal-layers / open-gop / min-keyint=24 / keyint=240 / gop-lookahead=0 / bframes=8 / b-adapt=2 / b-pyramid / bframe-bias=0 / rc-lookahead=60 / lookahead-slices=4 / scenecut=40 / radl=0 / no-intra-refresh / ctu=64 / min-cu-size=8 / rect / amp / max-tu-size=32 / tu-inter-depth=3 / tu-intra-depth=3 / limit-tu=4 / rdoq-level=1 / dynamic-rd=0.00 / no-ssim-rd / signhide / no-tskip / nr-intra=0 / nr-inter=0 / no-constrained-intra / no-strong-intra-smoothing / max-merge=3 / limit-refs=2 / limit-modes / me=3 / subme=7 / merange=57 / temporal-mvp / weightp / weightb / no-analyze-src-pics / deblock=-3:-3 / no-sao / no-sao-non-deblock / rd=6 / no-early-skip / rskip / no-fast-intra / no-tskip-fast / no-cu-lossless / b-intra / no-splitrd-skip / rdpenalty=0 / psy-rd=2.00 / psy-rdoq=1.00 / no-rd-refine / no-lossless / cbqpoffs=0 / crqpoffs=0 / rc=crf / crf=18.0 / qcomp=0.60 / qpstep=4 / stats-write=0 / stats-read=0 / vbv-maxrate=50000 / vbv-bufsize=50000 / vbv-init=0.9 / crf-max=0.0 / crf-min=0.0 / ipratio=1.40 / pbratio=1.30 / aq-mode=1 / aq-strength=1.00 / cutree / zone-count=0 / no-strict-cbr / qg-size=32 / no-rc-grain / qpmax=69 / qpmin=0 / no-const-vbv / sar=1 / overscan=0 / videoformat=5 / range=0 / colorprim=1 / transfer=1 / colormatrix=1 / chromaloc=0 / display-window=0 / max-cll=0,0 / min-luma=0 / max-luma=1023 / log2-max-poc-lsb=8 / vui-timing-info / vui-hrd-info / slices=1 / no-opt-qp-pps / no-opt-ref-list-length-pps / no-multi-pass-opt-rps / scenecut-bias=0.05 / no-opt-cu-delta-qp / no-aq-motion / no-hdr / no-hdr-opt / no-dhdr10-opt / no-idr-recovery-sei / analysis-reuse-level=5 / scale-factor=0 / refine-intra=0 / refine-inter=0 / refine-mv=0 / no-limit-sao / ctu-info=0 / no-lowpass-dct / refine-mv-type=0 / copy-pic=1 / max-ausize-factor=1.0 / no-dynamic-refine / no-single-sei
Language : English
Default : Yes
Forced : No
Color range : Limited
Color primaries : BT.709
Transfer characteristics : BT.709
Matrix coefficients : BT.709

Audio #1
ID : 2
Format : AC-3
Format/Info : Audio Coding 3
Commercial name : Dolby Digital
Codec ID : A_AC3
Duration : 1 h 35 min
Bit rate mode : Constant
Bit rate : 192 kb/s
Channel(s) : 2 channels
Channel layout : L R
Sampling rate : 48.0 kHz
Frame rate : 31.250 FPS (1536 SPF)
Bit depth : 16 bits
Compression mode : Lossy
Stream size : 131 MiB (2%)
Title : MVO НТВ
Language : Russian
Service kind : Complete Main
Default : Yes
Forced : Yes

Audio #2
ID : 3
Format : AC-3
Format/Info : Audio Coding 3
Commercial name : Dolby Digital
Codec ID : A_AC3
Duration : 1 h 35 min
Bit rate mode : Constant
Bit rate : 448 kb/s
Channel(s) : 6 channels
Channel layout : L R C LFE Ls Rs
Sampling rate : 48.0 kHz
Frame rate : 31.250 FPS (1536 SPF)
Bit depth : 16 bits
Compression mode : Lossy
Stream size : 306 MiB (6%)
Title : DVO Инис
Language : Russian
Service kind : Complete Main
Default : No
Forced : No

Audio #3
ID : 4
Format : AC-3
Format/Info : Audio Coding 3
Commercial name : Dolby Digital
Codec ID : A_AC3
Duration : 1 h 35 min
Bit rate mode : Constant
Bit rate : 448 kb/s
Channel(s) : 6 channels
Channel layout : L R C LFE Ls Rs
Sampling rate : 48.0 kHz
Frame rate : 31.250 FPS (1536 SPF)
Bit depth : 16 bits
Compression mode : Lossy
Stream size : 306 MiB (6%)
Title : AVO Гаврилов
Language : Russian
Service kind : Complete Main
Default : No
Forced : No

Audio #4
ID : 5
Format : AC-3
Format/Info : Audio Coding 3
Commercial name : Dolby Digital
Codec ID : A_AC3
Duration : 1 h 35 min
Bit rate mode : Constant
Bit rate : 192 kb/s
Channel(s) : 2 channels
Channel layout : L R
Sampling rate : 48.0 kHz
Frame rate : 31.250 FPS (1536 SPF)
Bit depth : 16 bits
Compression mode : Lossy
Stream size : 131 MiB (2%)
Title : AVO Сербин
Language : Russian
Service kind : Complete Main
Default : No
Forced : No

Audio #5
ID : 6
Format : AC-3
Format/Info : Audio Coding 3
Commercial name : Dolby Digital
Codec ID : A_AC3
Duration : 1 h 35 min
Bit rate mode : Constant
Bit rate : 448 kb/s
Channel(s) : 6 channels
Channel layout : L R C LFE Ls Rs
Sampling rate : 48.0 kHz
Frame rate : 31.250 FPS (1536 SPF)
Bit depth : 16 bits
Compression mode : Lossy
Stream size : 306 MiB (6%)
Language : English
Service kind : Complete Main
Default : No
Forced : No

Text #1
ID : 7
Format : UTF-8
Codec ID : S_TEXT/UTF8
Codec ID/Info : UTF-8 Plain Text
Duration : 1 h 30 min
Bit rate : 63 b/s
Count of elements : 755
Stream size : 42.0 KiB (0%)
Language : Russian
Default : No
Forced : No

Text #2
ID : 8
Format : UTF-8
Codec ID : S_TEXT/UTF8
Codec ID/Info : UTF-8 Plain Text
Duration : 1 h 32 min
Bit rate : 49 b/s
Count of elements : 1007
Stream size : 33.6 KiB (0%)
Language : English
Default : No
Forced : No

Menu
00:00:00.000 : en:Chapter 01
00:03:11.816 : en:Chapter 02
00:07:23.985 : en:Chapter 03
00:09:54.969 : en:Chapter 04
00:12:16.777 : en:Chapter 05
00:14:49.179 : en:Chapter 06
00:19:25.622 : en:Chapter 07
00:24:44.566 : en:Chapter 08
00:28:04.808 : en:Chapter 09
00:34:54.050 : en:Chapter 10
00:37:33.501 : en:Chapter 11
00:41:12.803 : en:Chapter 12
00:44:52.398 : en:Chapter 13
00:47:07.241 : en:Chapter 14
00:50:04.001 : en:Chapter 15
00:51:52.400 : en:Chapter 16
00:56:16.498 : en:Chapter 17
01:00:34.422 : en:Chapter 18
01:05:48.027 : en:Chapter 19
01:09:18.612 : en:Chapter 20
01:14:22.833 : en:Chapter 21
01:16:45.767 : en:Chapter 22
01:18:07.432 : en:Chapter 23
01:20:43.421 : en:Chapter 24
01:22:48.588 : en:Chapter 25
01:27:15.021 : en:Chapter 26
01:29:16.726 : en:Chapter 27
01:30:38.850 : en:Chapter 28
Скриншоты


Релиз от: Cthulhu
 

Вложения

  • 27,4 KB Просмотры: 1
    Личеров 0
    Сидеров 0
    Файлов 1
    Объем 5,3 GB

Привет!

Мы группа людей которые решили помочь другим в решении их проблем, а так же пользователям с поиском самых свежих и качественных инфопродуктов. За 4 с небольшим месяца мы создали этот форум на который заходят ежедневно тысячи человек и посещаемость постоянно растёт. Мы создали панель лицензирования для защиты PHP скриптов от воровства и SEO панель для мониторинга наших сайтов и выбора верной стратегии их развития. Мы надеемся что то что мы создали пригодится Вам и возможно Вы поможете нам развиваться и совершенствоваться вместе с Вами.

Статистика форума

Темы
406.535
Сообщения
464.632
Пользователи
83.208
Новый пользователь
kingartur9719

Приложения форума для iOS и Android


У ркн там нет власти ;)
Приватные разговоры
Помощь Пользователи
    Вы не присоединились ни к одной комнате.