За последнюю неделю опубликовано 151 новых материалов.
Инструкция новичку Путеводитель по форуму Прокси для Telegram Показать подсказки , это бомба!

Скачать В небо за мечтой (2017) WEB-DL 1080p | iTunes бесплатно через торрент

  • Поучаствуй (в качестве покупателя) в любых пяти совместных покупках (кроме завершённых и "Моментальных") и получи группу "Новичок" навсегда -> ссылка на раздел
  • Получай до 480 рублей за каждого приглашенного пользователя!
    представляем Вам очередное расширение партнерской программы, подробности описаны тут -> ссылка
  • 90% материалов доступно к скачиванию после простой регистрации!
    Если же ты хочешь скачивать материалы без требования оставлять отзывы то получи группу "Новичок", 10 способов повышения описаны тут -> ссылка
  • К сожалению количество битых ссылок растет и мы уже не можем их оперативно восстанавливать поэтому просим помощи у каждого нашего пользователя.
    С сегодняшнего дня, за каждую восстановленную ссылку мы заплатим Вам.
    Подробнее тут -> ссылка
  • Перенесем твои заслуги с другого ресурса!
    Мы понимаем как сложно прокачивать аккаунты на форумах, вроде раскачал аккаунт, а тут появляется ресурс в 100 раз круче но тоже с системой прокачки и снова качать аккаунт...
    Предлагаем вам перенести Ваши заслуги на другом подобном ресурсе к нам.
    Подробности описаны тут -> ссылка
  • Вы можете получать по 2.5% с каждой покупки и продажи на маркете! Подробности в теме Партнёрская программа
Если Вы не хотите скачивать, Вы всегда можетепосмотретьонлайн, просто нажмите кнопку ниже :

Открыть плеер

Torrent_Bot

Торрент-Бот
Бот форума
4 Окт 2016
124
92
20



Информация о фильме
Название: В небо за мечтой
Год выпуска: 2017
Жанр:Семейный, мелодрама, приключения
Режиссер: Игорь Перин
В ролях: Александр Новиков (XIV), Мария Авсюкевич, Артём Жигулин, Александр Мохов, Татьяна Рыбинец, Вячеслав Глушков, Игорь Чикин, Мария Павлова (IV), Полина Буданцева, Катя Углова, Артем Исаков, Василисса Фомина, Данила Пятницков, Захар Кабанов, Илья Староверов, Елена Дробышева, Варвара Шулятьева, Илья Соколовский, Азамат Алиев (II), Василий Брыков

О фильме: Всю свою начинающуюся жизнь юный Пашка Новиков бредил самолетами. Зачитывался рассказами о подвигах Валерия Чкалова. Из своей деревни он переезжает в Москву к старшей сестре. Начинается новая жизнь. Не просто складываются отношения с одноклассниками. Но открытый и прямой характер деревенского мечтателя все же помогает ему освоиться. Судьба сводит Пашку с настоящим летчиком-испытателем, который обещает прокатить мальчика на самолете, если тот сможет выполнить одно его условие.



Выпущено: Россия, Ленкино
Продолжительность: 01:33:30
Перевод: Не требуется

Файл
Качество: WEB-DL 1080p
Контейнер: MKV
Видео: MPEG-4 AVC (High@L4.0); 1920x1038 (1.85:1), 24.000 fps, 5045 Kbps
Аудио: AC-3; 16 bits 48 Khz; 5.1ch 384 Kbps; CBR
Субтитры: Нет

Релиз от: george$t

Скриншоты

MediaInfo
General
Unique ID : 196335329864396237468328715258248375024 (0x93B4CF20B2F80716A9DB2EEC91152AF0)
Complete name : В небо за мечтой.mkv
Format : Matroska
Format version : Version 2
File size : 3.62 GiB
Duration : 1 h 33 min
Overall bit rate : 5 539 kb/s
Encoded date : UTC 2018-12-28 11:13:30
Writing application : mkvmerge v7.8.0 ('River Man') 32bit built on Mar 27 2015 16:18:02
Writing library : libebml v1.3.1 + libmatroska v1.4.2

Video
ID : 1
Format : AVC
Format/Info : Advanced Video Codec
Format profile : High@L4
Format settings : CABAC / 4 Ref Frames
Format settings, CABAC : Yes
Format settings, ReFrames : 4 frames
Codec ID : V_MPEG4/ISO/AVC
Duration : 1 h 33 min
Bit rate : 5 045 kb/s
Width : 1 920 pixels
Height : 1 038 pixels
Display aspect ratio : 1.85:1
Frame rate mode : Constant
Frame rate : 24.000 FPS
Color space : YUV
Chroma subsampling : 4:2:0
Bit depth : 8 bits
Scan type : Progressive
Bits/(Pixel*Frame) : 0.105
Stream size : 3.29 GiB (91%)
Title : В небо за мечтой 2017
Language : Russian
Default : Yes
Forced : No
Color range : Limited
Color primaries : BT.709
Transfer characteristics : BT.709
Matrix coefficients : BT.709

Audio
ID : 2
Format : AC-3
Format/Info : Audio Coding 3
Codec ID : A_AC3
Duration : 1 h 33 min
Bit rate mode : Constant
Bit rate : 384 kb/s
Channel(s) : 6 channels
Channel positions : Front: L C R, Side: L R, LFE
Sampling rate : 48.0 kHz
Frame rate : 31.250 FPS (1536 SPF)
Bit depth : 16 bits
Compression mode : Lossy
Stream size : 257 MiB (7%)
Title : AC-3; 16 bits 48 Khz; 5.1ch 384 Kbps; CBR
Language : Russian
Service kind : Complete Main
Default : Yes
Forced : No
 

Вложения

  • 19 KB Просмотры: 0
    Личеров 0
    Сидеров 0
    Файлов 1
    Объем 3,6 GB
Ваш e-mail не будет опубликован. Он потребуется для подтверждения Вашего поста.
Оформление текста Нажмите «Ввод», чтобы отправить ответ.

Привет!

Мы группа людей которые решили помочь другим в решении их проблем, а так же пользователям с поиском самых свежих и качественных инфопродуктов. За 4 с небольшим месяца мы создали этот форум на который заходят ежедневно тысячи человек и посещаемость постоянно растёт. Мы создали панель лицензирования для защиты PHP скриптов от воровства и SEO панель для мониторинга наших сайтов и выбора верной стратегии их развития. Мы надеемся что то что мы создали пригодится Вам и возможно Вы поможете нам развиваться и совершенствоваться вместе с Вами.

Статистика форума

Темы
378.561
Сообщения
417.566
Пользователи
48.918
Новый пользователь
player2oo

Приложения форума для iOS и Android


У ркн там нет власти ;)
Приватные разговоры
Помощь Пользователи
    Вы не присоединились ни к одной комнате.