За последнюю неделю опубликовано 26 новых материалов.
Инструкция новичку Путеводитель по форуму Прокси для Telegram Показать подсказки , это бомба!

Скачать В метре друг от друга / Five Feet Apart (2019) BDRip 720p | D, P бесплатно через торрент

  • Поучаствуй (в качестве покупателя) в любых пяти совместных покупках (кроме завершённых и "Моментальных") и получи группу "Новичок" навсегда -> ссылка на раздел
  • Получай до 480 рублей за каждого приглашенного пользователя!
    представляем Вам очередное расширение партнерской программы, подробности описаны тут -> ссылка
  • 90% материалов доступно к скачиванию после простой регистрации!
    Если же ты хочешь скачивать материалы без требования оставлять отзывы то получи группу "Новичок", 10 способов повышения описаны тут -> ссылка
  • К сожалению количество битых ссылок растет и мы уже не можем их оперативно восстанавливать поэтому просим помощи у каждого нашего пользователя.
    С сегодняшнего дня, за каждую восстановленную ссылку мы заплатим Вам.
    Подробнее тут -> ссылка
  • Перенесем твои заслуги с другого ресурса!
    Мы понимаем как сложно прокачивать аккаунты на форумах, вроде раскачал аккаунт, а тут появляется ресурс в 100 раз круче но тоже с системой прокачки и снова качать аккаунт...
    Предлагаем вам перенести Ваши заслуги на другом подобном ресурсе к нам.
    Подробности описаны тут -> ссылка
  • Вы можете получать по 2.5% с каждой покупки и продажи на маркете! Подробности в теме Партнёрская программа
Если Вы не хотите скачивать, Вы всегда можетепосмотретьонлайн, просто нажмите кнопку ниже :

Открыть плеер

Torrent_Bot

Торрент-Бот
Бот форума
4 Окт 2016
122
115
20



Информация о фильме
Название: В метре друг от друга
Оригинальное название: Five Feet Apart
Год выхода: 2019
Жанр: драма, мелодрама
Режиссер: Джастин Бальдони
В ролях: Хейли Лу Ричардсон, Коул Спроус, Мойзес Ариас, Кимберли Хеберт Грегори, Парминдер К. Награ, Клэр Форлани, Эмили Бальдони, Гари Викс, Синтия Эванс, Бретт Остин Джонсон

О фильме:
Пространство, в котором они существуют, диктует жестокое условие — влюбленные должны находиться не ближе метра друг от друга, им недоступно даже прикосновение. Но истинная любовь не знает границ, и чем сильнее чувства, тем больше соблазн нарушить правила…



Страна: США
Студия: CBS Films, Wayfarer Entertainment
Продолжительность: 01:56:15
Перевод: Профессиональный (полное дублирование) iTunes, профессиональный (многоголосый, закадровый) HDRezka Studio

Файл
Кодек: x264
Качество: BDRip 720p [Five.Feet.Apart.2019.1080p.BluRay.REMUX.AVC.DTS-HD.MA.5.1-FGT]
Видео: 1280x534 (2.40:1), 23.976fps, MPEG-4 AVC, 4437 kb/s, 0.271 bit/pixel
Звук:
Audio 1: Dolby AC3 48000Hz 6ch 384kbps [A: DUB - iTunes [rus] (ac3, 48000 Hz, 5.1, 384 kb/s)]
Audio 2: Dolby AC3 48000Hz 6ch 448kbps [A: MVO - HDRezka Studio [rus] (ac3, 48000 Hz, 5.1, 448 kb/s)]
Audio 3: Dolby AC3 48000Hz 6ch 448kbps [A: Original [eng] (ac3, 48000 Hz, 5.1, 448 kb/s)]
Субтитры: Русские, английские

ЦитатаКто-то писал:
Дорожка №2 получена наложением выделенных голосов на центральный канал оригинальной звуковой дорожки. Работа со звуком: other_code.
MediaInfo
General
Unique ID : 260303610059299854389476429793073443432 (0xC3D4A6D76B381C2E03BA0C4868423268)
Complete name : В метре друг от друга - Five Feet Apart (2019) BDRip 720p.mkv
Format : Matroska
Format version : Version 4 / Version 2
File size : 4.64 GiB
Duration : 1 h 56 min
Overall bit rate : 5 716 kb/s
Movie name : Five Feet Apart (2019)
Encoded date : UTC 2019-11-19 08:52:53
Writing application : mkvmerge v40.0.0 ('Old Town Road + Pony') 64-bit
Writing library : libebml v1.3.9 + libmatroska v1.5.2

Video
ID : 1
Format : AVC
Format/Info : Advanced Video Codec
Format profile : High@L4.1
Format settings, CABAC : Yes
Format settings, RefFrames : 9 frames
Codec ID : V_MPEG4/ISO/AVC
Duration : 1 h 56 min
Bit rate : 4 437 kb/s
Width : 1 280 pixels
Height : 534 pixels
Display aspect ratio : 2.40:1
Frame rate mode : Constant
Frame rate : 23.976 (24000/1001) FPS
Color space : YUV
Chroma subsampling : 4:2:0
Bit depth : 8 bits
Scan type : Progressive
Bits/(Pixel*Frame) : 0.271
Stream size : 3.60 GiB (78%)
Writing library : x264 core 157 r2969 d4099dd
Encoding settings : cabac=1 / ref=9 / deblock=1:-3:-3 / analyse=0x3:0x113 / me=umh / subme=11 / psy=1 / psy_rd=1.00:0.00 / mixed_ref=1 / me_range=32 / chroma_me=1 / trellis=2 / 8x8dct=1 / cqm=0 / deadzone=21,11 /

fast_pskip=1 / chroma_qp_offset=-4 / threads=6 / lookahead_threads=1 / sliced_threads=0 / nr=0 / decimate=1 / interlaced=0 / bluray_compat=0 / constrained_intra=0 / bframes=11 / b_pyramid=2 / b_adapt=2 / b_bias=0 / direct=1 / weightb=1

/ open_gop=0 / weightp=2 / keyint=240 / keyint_min=23 / scenecut=40 / intra_refresh=0 / rc_lookahead=60 / rc=2pass / mbtree=1 / bitrate=4437 / ratetol=1.0 / qcomp=0.60 / qpmin=0 / qpmax=69 / qpstep=4 / cplxblur=20.0 / qblur=0.5 /

vbv_maxrate=50000 / vbv_bufsize=62500 / nal_hrd=none / filler=0 / ip_ratio=1.40 / aq=1:0.90
Language : English
Default : Yes
Forced : No

Audio #1
ID : 2
Format : AC-3
Format/Info : Audio Coding 3
Format settings, Endianness : Big
Codec ID : A_AC3
Duration : 1 h 56 min
Bit rate mode : Constant
Bit rate : 384 kb/s
Channel(s) : 6 channels
Channel positions : Front: L C R, Side: L R, LFE
Sampling rate : 48.0 kHz
Frame rate : 31.250 FPS (1536 SPF)
Bit depth : 16 bits
Compression mode : Lossy
Stream size : 319 MiB (7%)
Title : DUB - iTunes
Language : Russian
Service kind : Complete Main
Default : Yes
Forced : No

Audio #2
ID : 3
Format : AC-3
Format/Info : Audio Coding 3
Format settings, Endianness : Big
Codec ID : A_AC3
Duration : 1 h 56 min
Bit rate mode : Constant
Bit rate : 448 kb/s
Channel(s) : 6 channels
Channel positions : Front: L C R, Side: L R, LFE
Sampling rate : 48.0 kHz
Frame rate : 31.250 FPS (1536 SPF)
Bit depth : 16 bits
Compression mode : Lossy
Stream size : 373 MiB (8%)
Title : MVO - HDRezka Studio
Language : Russian
Service kind : Complete Main
Default : No
Forced : No

Audio #3
ID : 4
Format : AC-3
Format/Info : Audio Coding 3
Format settings, Endianness : Big
Codec ID : A_AC3
Duration : 1 h 56 min
Bit rate mode : Constant
Bit rate : 448 kb/s
Channel(s) : 6 channels
Channel positions : Front: L C R, Side: L R, LFE
Sampling rate : 48.0 kHz
Frame rate : 31.250 FPS (1536 SPF)
Bit depth : 16 bits
Compression mode : Lossy
Stream size : 373 MiB (8%)
Title : Original
Language : English
Service kind : Complete Main
Default : No
Forced : No

Text #1
ID : 5
Format : UTF-8
Codec ID : S_TEXT/UTF8
Codec ID/Info : UTF-8 Plain Text
Duration : 1 h 44 min
Bit rate : 1 b/s
Count of elements : 18
Stream size : 1.17 KiB (0%)
Title : Forced
Language : Russian
Default : Yes
Forced : No

Text #2
ID : 6
Format : UTF-8
Codec ID : S_TEXT/UTF8
Codec ID/Info : UTF-8 Plain Text
Duration : 1 h 49 min
Bit rate : 70 b/s
Count of elements : 1357
Stream size : 56.7 KiB (0%)
Title : Full
Language : Russian
Default : No
Forced : No

Text #3
ID : 7
Format : UTF-8
Codec ID : S_TEXT/UTF8
Codec ID/Info : UTF-8 Plain Text
Duration : 1 h 49 min
Bit rate : 43 b/s
Count of elements : 1207
Stream size : 35.3 KiB (0%)
Title : Full
Language : English
Default : No
Forced : No

Text #4
ID : 8
Format : UTF-8
Codec ID : S_TEXT/UTF8
Codec ID/Info : UTF-8 Plain Text
Duration : 1 h 53 min
Bit rate : 49 b/s
Count of elements : 1441
Stream size : 41.1 KiB (0%)
Title : SDH
Language : English
Default : No
Forced : No

Menu
00:00:00.000 : en:Chapter 01
00:07:17.645 : en:Chapter 02
00:13:52.206 : en:Chapter 03
00:21:20.028 : en:Chapter 04
00:29:33.062 : en:Chapter 05
00:36:43.034 : en:Chapter 06
00:42:55.322 : en:Chapter 07
00:49:26.755 : en:Chapter 08
00:58:30.215 : en:Chapter 09
01:07:03.144 : en:Chapter 10
01:11:37.001 : en:Chapter 11
01:18:55.439 : en:Chapter 12
01:28:41.899 : en:Chapter 13
01:36:52.765 : en:Chapter 14
01:41:37.883 : en:Chapter 15
01:49:11.878 : en:Chapter 16
Скриншоты
 

Вложения

  • 24,2 KB Просмотры: 0
    Личеров 0
    Сидеров 0
    Файлов 1
    Объем 4,6 GB

Привет!

Мы группа людей которые решили помочь другим в решении их проблем, а так же пользователям с поиском самых свежих и качественных инфопродуктов. За 4 с небольшим месяца мы создали этот форум на который заходят ежедневно тысячи человек и посещаемость постоянно растёт. Мы создали панель лицензирования для защиты PHP скриптов от воровства и SEO панель для мониторинга наших сайтов и выбора верной стратегии их развития. Мы надеемся что то что мы создали пригодится Вам и возможно Вы поможете нам развиваться и совершенствоваться вместе с Вами.

Статистика форума

Темы
385.029
Сообщения
430.037
Пользователи
62.469
Новый пользователь
olyakva_kva

Приложения форума для iOS и Android


У ркн там нет власти ;)
Приватные разговоры
Помощь Пользователи
    Вы не присоединились ни к одной комнате.