За последнюю неделю опубликовано 47 новых материалов.
Инструкция новичку Путеводитель по форуму Прокси для Telegram Показать подсказки , это бомба!

Скачать В этом южном городе (1969) DVB от AND03AND бесплатно через торрент

  • Поучаствуй (в качестве покупателя) в любых пяти совместных покупках (кроме завершённых и "Моментальных") и получи группу "Новичок" навсегда -> ссылка на раздел
  • Получай до 480 рублей за каждого приглашенного пользователя!
    представляем Вам очередное расширение партнерской программы, подробности описаны тут -> ссылка
  • 90% материалов доступно к скачиванию после простой регистрации!
    Если же ты хочешь скачивать материалы без требования оставлять отзывы то получи группу "Новичок", 10 способов повышения описаны тут -> ссылка
  • К сожалению количество битых ссылок растет и мы уже не можем их оперативно восстанавливать поэтому просим помощи у каждого нашего пользователя.
    С сегодняшнего дня, за каждую восстановленную ссылку мы заплатим Вам.
    Подробнее тут -> ссылка
  • Перенесем твои заслуги с другого ресурса!
    Мы понимаем как сложно прокачивать аккаунты на форумах, вроде раскачал аккаунт, а тут появляется ресурс в 100 раз круче но тоже с системой прокачки и снова качать аккаунт...
    Предлагаем вам перенести Ваши заслуги на другом подобном ресурсе к нам.
    Подробности описаны тут -> ссылка
  • Вы можете получать по 2.5% с каждой покупки и продажи на маркете! Подробности в теме Партнёрская программа
Если Вы не хотите скачивать, Вы всегда можетепосмотретьонлайн, просто нажмите кнопку ниже :

Открыть плеер

Torrent_Bot

Торрент-Бот
Бот форума
4 Окт 2016
90
166
20
Информация о фильме
Название: В этом южном городе / В одном южном городе / Бир чануб шахаринда / Bir cənub şəhərində
Год выхода: 1969
Жанр: Драма
Режиссер: Эльдар Кулиев
В ролях: Гасан Мамедов, Эльданиз Зейналов, Гаджимурад Ягизаров, Меджид Дадашев, Нателла Адыгёзалова, Садых Гусейнов, Сусанна Меджидова, Татьяна Харитонова, Асад Мамедов, Юсиф Велиев, Садык Гасанзаде, Бильгеиз Алескерова, Фазиль Салаев, Мемедкамаль Казымов

О фильме:
О столкновении старого и нового, об их странном, причудливом, комичном, а порой и тревожном сочетании в жизни и быте послевоенного Баку рассказывает этот фильм.

Сценарист: Рустам Ибрагимбеков
Оператор: Расим Оджагов
Композитор: Фарадж Караев
Художник: Кямиль Наджафзаде
Премьера: 2 марта 1970 (Москва)

Афиша



Запись потока *.ts с наземного цифрового телеканала "Беларусь 3", ремукс в *.mkv программой VideoReDo.

Страна: СССР
Студия: Азербайджанфильм
Продолжительность: 01:16:30
Перевод: Профессиональный (дублированный)

Файл
Кодек: AVC (H264)
Качество: DVB
Видео: MPEG4 Video (H264) 720x576 (4:3) 25fps, 2 205 Kbps
Звук: MPEG Audio 48000Hz stereo 256kbps

Семпл

MediaInfo
General
Unique ID : 141945602095034555932874146673616478850 (0x6AC9BA8292C3032E1FAC6C89B16FE282)
Complete name : D:Новая земля 2Художественные фильмыВ этом южном городе (1969)В этом южном городе (1969).mkv
Format : Matroska
Format version : Version 2
File size : 1.34 GiB
Duration : 1h 16mn
Overall bit rate : 2 511 Kbps
Writing application : Lavf52.64.2
Writing library : Lavf52.64.2

Video
ID : 1
Format : AVC
Format/Info : Advanced Video Codec
Format profile : [email protected]
Format settings, CABAC : Yes
Format settings, ReFrames : 4 frames
Codec ID : V_MPEG4/ISO/AVC
Duration : 1h 16mn
Bit rate : 2 205 Kbps
Width : 720 pixels
Height : 576 pixels
Display aspect ratio : 4:3
Original display aspect ratio : 4:3
Frame rate mode : Constant
Frame rate : 25.000 fps
Standard : PAL
Color space : YUV
Chroma subsampling : 4:2:0
Bit depth : 8 bits
Scan type : MBAFF
Scan order : Top Field First
Bits/(Pixel*Frame) : 0.213
Stream size : 1.18 GiB (88%)
Default : Yes
Forced : No
Color primaries : BT.601 PAL
Transfer characteristics : BT.470 System B, BT.470 System G
Matrix coefficients : BT.601
Color range : Limited

Audio
ID : 2
Format : MPEG Audio
Format version : Version 1
Format profile : Layer 2
Codec ID : A_MPEG/L2
Codec ID/Hint : MP2
Duration : 1h 16mn
Bit rate mode : Constant
Bit rate : 256 Kbps
Channel(s) : 2 channels
Sampling rate : 48.0 KHz
Compression mode : Lossy
Stream size : 140 MiB (10%)
Language : English
Default : Yes
Forced : No

Скриншоты
 

Вложения

  • 15,7 KB Просмотры: 1
    Личеров 0
    Сидеров 0
    Файлов 1
    Объем 1,3 GB

Привет!

Мы группа людей которые решили помочь другим в решении их проблем, а так же пользователям с поиском самых свежих и качественных инфопродуктов. За 4 с небольшим месяца мы создали этот форум на который заходят ежедневно тысячи человек и посещаемость постоянно растёт. Мы создали панель лицензирования для защиты PHP скриптов от воровства и SEO панель для мониторинга наших сайтов и выбора верной стратегии их развития. Мы надеемся что то что мы создали пригодится Вам и возможно Вы поможете нам развиваться и совершенствоваться вместе с Вами.

Статистика форума

Темы
410.885
Сообщения
469.444
Пользователи
87.883
Новый пользователь
denylav

Приложения форума для iOS и Android


У ркн там нет власти ;)
Приватные разговоры
Помощь Пользователи
    Вы не присоединились ни к одной комнате.