За последнюю неделю опубликовано 62 новых материалов.
Инструкция новичку Путеводитель по форуму Прокси для Telegram Показать подсказки , это бомба!

Скачать Узник замка Иф (1988) WEBRip 720p от KORSAR бесплатно через торрент

  • Поучаствуй (в качестве покупателя) в любых пяти совместных покупках (кроме завершённых и "Моментальных") и получи группу "Новичок" навсегда -> ссылка на раздел
  • Получай до 480 рублей за каждого приглашенного пользователя!
    представляем Вам очередное расширение партнерской программы, подробности описаны тут -> ссылка
  • 90% материалов доступно к скачиванию после простой регистрации!
    Если же ты хочешь скачивать материалы без требования оставлять отзывы то получи группу "Новичок", 10 способов повышения описаны тут -> ссылка
  • К сожалению количество битых ссылок растет и мы уже не можем их оперативно восстанавливать поэтому просим помощи у каждого нашего пользователя.
    С сегодняшнего дня, за каждую восстановленную ссылку мы заплатим Вам.
    Подробнее тут -> ссылка
  • Перенесем твои заслуги с другого ресурса!
    Мы понимаем как сложно прокачивать аккаунты на форумах, вроде раскачал аккаунт, а тут появляется ресурс в 100 раз круче но тоже с системой прокачки и снова качать аккаунт...
    Предлагаем вам перенести Ваши заслуги на другом подобном ресурсе к нам.
    Подробности описаны тут -> ссылка
  • Вы можете получать по 2.5% с каждой покупки и продажи на маркете! Подробности в теме Партнёрская программа
Если Вы не хотите скачивать, Вы всегда можетепосмотретьонлайн, просто нажмите кнопку ниже :

Открыть плеер

Torrent_Bot

Торрент-Бот
Бот форума
4 Окт 2016
92
160
20







Узник замка Иф
Год выпуска: 1988
Жанр: Драма, приключения, история
Страна: СССР, Франция
Продолжительность: 01:04:58 + 01:04:50 + 01:32:12
Режиссер: Георгий Юнгвальд-Хилькевич
В ролях: Виктор Авилов, Евгений Дворжецкий, Алексей Петренко, Анна Самохина, Михаил Боярский, Надира Мирзаева, Алексей Жарков, Светлана Смирнова, Яна Поплавская, Игорь Скляр, Владимир Стеклов, Всеволод Шиловский, Наталья Цыганкова, Игорь Богодух, Елена Чекан

О фильме: Фильм состоит из трёх частей: Аббат Фариа, Граф Монте-Кристо, Аз воздам... По мотивам романа А. Дюма «Граф Монте-Кристо». В самый канун свадьбы с любимой девушкой Эдмон Дантес по ложному обвинению становится узником мрачного замка Иф. Здесь ему предстоит томиться до конца дней своих, но отчаянная решимость спастись и счастливый случай помогают ему выбраться на волю. Сказочно разбогатев и превратившись в графа Монте-Кристо, он начинает мстить.


Релиз от:


Качество: WEBRip 720p
Формат: MKV
Видео: MPEG-4 AVC, 980x720, 25 fps, ~7575 Кбит/с
Аудио: AC3, 2 ch, 192 Кбит/с
Язык: Русский
Навигация по главам: Есть

Скриншоты
Инфо файл
x264 [info]: frame I:475 Avg QP:17.37 size:146806
x264 [info]: frame P:22286 Avg QP:19.13 size: 83372
x264 [info]: frame B:74508 Avg QP:21.42 size: 22477
x264 [info]: consecutive B-frames: 0.8% 1.1% 3.9% 55.3% 15.4% 21.9% 1.1% 0.4% 0.1% 0.0%
Общее
Уникальный идентификатор : 195674996468904087772172424322412674159 (0x9335A22D7F4B9C519D9D2A6311FB7C6F)
Полное имя : D:Узник замка Иф_1988-WEBRip 720p_KORSARУзник замка Иф-1.mkv
Формат : Matroska
Версия формата : Version 2
Размер файла : 3,78 Гбайт
Продолжительность : 1 ч. 4 м.
Общий поток : 8 335 Кбит/сек
Название фильма : Узник замка Иф_1988-WEBRip 720p_KORSAR
Дата кодирования : UTC 2020-06-02 12:44:20
Программа кодирования : mkvmerge v5.8.0 ('No Sleep / Pillow') built on Sep 2 2012 15:37:04
Библиотека кодирования : libebml v1.2.3 + libmatroska v1.3.0

Видео
Идентификатор : 1
Формат : AVC
Формат/Информация : Advanced Video Codec
Профиль формата : [email protected]
Настройки формата : CABAC / 11 Ref Frames
Параметр CABAC формата : Да
Параметр RefFrames формата : 11 кадров
Идентификатор кодека : V_MPEG4/ISO/AVC
Продолжительность : 1 ч. 4 м.
Битрейт : 7 977 Кбит/сек
Ширина : 980 пикселей
Высота : 720 пикселей
Соотношение сторон : 4:3
Режим частоты кадров : Постоянный
Частота кадров : 25,000 кадров/сек
Цветовое пространство : YUV
Субдискретизация насыщенности : 4:2:0
Битовая глубина : 8 бит
Тип развёртки : Прогрессивная
Бит/(Пиксели*Кадры) : 0.452
Размер потока : 3,62 Гбайт (96%)
Библиотека кодирования : x264 core 152 r2851kMod ba24899
Настройки программы : cabac=1 / ref=11 / deblock=1:-2:-2 / analyse=0x3:0x113 / me=umh / subme=11 / psy=1 / fade_compensate=0.00 / psy_rd=1.05:0.10 / mixed_ref=1 / me_range=48 / chroma_me=1 / trellis=2 / 8x8dct=1 / cqm=0 / deadzone=21,11 / fast_pskip=1 / chroma_qp_offset=-3 / threads=4 / lookahead_threads=1 / sliced_threads=0 / nr=0 / decimate=1 / interlaced=0 / bluray_compat=0 / constrained_intra=0 / bframes=9 / b_pyramid=2 / b_adapt=2 / b_bias=0 / direct=1 / weightb=1 / open_gop=0 / weightp=2 / keyint=250 / keyint_min=25 / scenecut=40 / intra_refresh=0 / rc_lookahead=40 / rc=crf / mbtree=0 / crf=18.0000 / qcomp=0.63 / qpmin=0 / qpmax=33 / qpstep=4 / vbv_maxrate=50000 / vbv_bufsize=62500 / crf_max=0.0 / nal_hrd=none / filler=0 / ip_ratio=1.40 / pb_ratio=1.30 / aq=2:0.80
Язык : English
Default : Да
Forced : Нет
Цветовой диапазон : Limited
Основные цвета : BT.709
Характеристики трансфера : BT.709
Коэффициенты матрицы : BT.709
Duration_Source : General_Duration

Аудио
Идентификатор : 2
Формат : AC-3
Формат/Информация : Audio Coding 3
Коммерческое название : Dolby Digital
Идентификатор кодека : A_AC3
Продолжительность : 1 ч. 4 м.
Вид битрейта : Постоянный
Битрейт : 192 Кбит/сек
Каналы : 2 канала
Channel layout : L R
Частота : 48,0 КГц
Частота кадров : 31,250 кадров/сек (1536 SPF)
Метод сжатия : С потерями
Размер потока : 89,2 Мбайт (2%)
Язык : Russian

Default : Да
Forced : Нет
Duration_Source : General_Duration

Меню
00:00:00.000 : en:Chapter 1
00:00:32.360 : en:Chapter 2
00:09:09.840 : en:Chapter 3
00:19:09.240 : en:Chapter 4
00:32:34.040 : en:Chapter 5
00:41:49.800 : en:Chapter 6
00:51:15.200 : en:Chapter 7
01:04:57.560 : en:Chapter 8
01:04:58.000 : en:Chapter 9
 

Вложения

  • 60 KB Просмотры: 0
    Личеров 0
    Сидеров 0
    Файлов 3
    Объем 11,8 GB

Привет!

Мы группа людей которые решили помочь другим в решении их проблем, а так же пользователям с поиском самых свежих и качественных инфопродуктов. За 4 с небольшим месяца мы создали этот форум на который заходят ежедневно тысячи человек и посещаемость постоянно растёт. Мы создали панель лицензирования для защиты PHP скриптов от воровства и SEO панель для мониторинга наших сайтов и выбора верной стратегии их развития. Мы надеемся что то что мы создали пригодится Вам и возможно Вы поможете нам развиваться и совершенствоваться вместе с Вами.

Статистика форума

Темы
406.657
Сообщения
465.112
Пользователи
84.665
Новый пользователь
koleg

Приложения форума для iOS и Android


У ркн там нет власти ;)
Приватные разговоры
Помощь Пользователи
    Вы не присоединились ни к одной комнате.