За последнюю неделю опубликовано 35 новых материалов.
Инструкция новичку Путеводитель по форуму Прокси для Telegram Показать подсказки , это бомба!

Скачать Узник замка Иф (1988) DVD9 бесплатно через торрент

  • Поучаствуй (в качестве покупателя) в любых пяти совместных покупках (кроме завершённых и "Моментальных") и получи группу "Новичок" навсегда -> ссылка на раздел
  • Получай до 480 рублей за каждого приглашенного пользователя!
    представляем Вам очередное расширение партнерской программы, подробности описаны тут -> ссылка
  • 90% материалов доступно к скачиванию после простой регистрации!
    Если же ты хочешь скачивать материалы без требования оставлять отзывы то получи группу "Новичок", 10 способов повышения описаны тут -> ссылка
  • К сожалению количество битых ссылок растет и мы уже не можем их оперативно восстанавливать поэтому просим помощи у каждого нашего пользователя.
    С сегодняшнего дня, за каждую восстановленную ссылку мы заплатим Вам.
    Подробнее тут -> ссылка
  • Перенесем твои заслуги с другого ресурса!
    Мы понимаем как сложно прокачивать аккаунты на форумах, вроде раскачал аккаунт, а тут появляется ресурс в 100 раз круче но тоже с системой прокачки и снова качать аккаунт...
    Предлагаем вам перенести Ваши заслуги на другом подобном ресурсе к нам.
    Подробности описаны тут -> ссылка
  • Вы можете получать по 2.5% с каждой покупки и продажи на маркете! Подробности в теме Партнёрская программа
Если Вы не хотите скачивать, Вы всегда можетепосмотретьонлайн, просто нажмите кнопку ниже :

Открыть плеер

Torrent_Bot

Торрент-Бот
Бот форума
4 Окт 2016
93
160
20
Информация о фильме
Название: Узник замка Иф
Год выхода: 1988
Жанр: драма, приключения, история
Режиссер: Георгий Юнгвальд-Хилькевич
В ролях: Виктор Авилов, Евгений Дворжецкий, Анна Самохина, Михаил Боярский, Арнис Лицитис, Алексей Жарков, Игорь Скляр, Нодира Мирзаева, Алексей Петренко, Светлана Смирнова

О фильме:
По мотивам романа А. Дюма «Граф Монте-Кристо». В самый канун свадьбы с любимой девушкой Эдмон Дантес по ложному обвинению становится узником мрачного замка Иф.

Здесь ему предстоит томиться до конца дней своих, но отчаянная решимость спастись и счастливый случай помогают ему выбраться на волю. Сказочно разбогатев и превратившись в графа Монте-Кристо, он начинает мстить…




Страна: СССР, Франция
Студия: Одесская киностудия, Совинфильм
Продолжительность: 220 мин. / 03:40
Перевод: не требуется

Файл
Кодек: MPEG2
Качество: 2xDVD9
Видео: PAL 4:3 ([email protected]) VBR 6730 Kbps, 25.000 fps
Звук: Dolby AC3, 2 ch, 48.0 KHz, 192 Кbps
Субтитры: отсутствуют

MediaInfo
General
Complete name : E:prisonerDVD1VIDEO_TSVTS_01_1.VOB
Format : MPEG-PS
File size : 1 024 MiB
Duration : 20mn 16s
Overall bit rate mode : Variable
Overall bit rate : 7 062 Kbps

Video
ID : 224 (0xE0)
Format : MPEG Video
Format version : Version 2
Format profile : [email protected]
Format settings, BVOP : Yes
Format settings, Matrix : Custom
Format settings, GOP : M=3, N=15
Format settings, picture struc : Frame
Duration : 20mn 16s
Bit rate mode : Variable
Bit rate : 6 730 Kbps
Maximum bit rate : 9 000 Kbps
Width : 720 pixels
Height : 576 pixels
Display aspect ratio : 4:3
Frame rate : 25.000 fps
Standard : PAL
Color space : YUV
Chroma subsampling : 4:2:0
Bit depth : 8 bits
Scan type : Interlaced
Scan order : Top Field First
Compression mode : Lossy
Bits/(Pixel*Frame) : 0.649
Time code of first frame : 00:00:00:00
Time code source : Group of pictures header
GOP, Open/Closed : Open
Stream size : 976 MiB (95%)
GOP, Open/Closed of first fram : Closed

Audio
ID : 189 (0xBD)-128 (0x80)
Format : AC-3
Format/Info : Audio Coding 3
Mode extension : CM (complete main)
Format settings, Endianness : Big
Muxing mode : DVD-Video
Duration : 20mn 15s
Bit rate mode : Constant
Bit rate : 192 Kbps
Channel(s) : 2 channels
Channel positions : Front: L R
Sampling rate : 48.0 KHz
Bit depth : 16 bits
Compression mode : Lossy
Stream size : 27.8 MiB (3%)

Menu
Скриншоты
 

Вложения

  • 127,8 KB Просмотры: 1
    Личеров 0
    Сидеров 0
    Файлов 52
    Объем 12,4 GB

Привет!

Мы группа людей которые решили помочь другим в решении их проблем, а так же пользователям с поиском самых свежих и качественных инфопродуктов. За 4 с небольшим месяца мы создали этот форум на который заходят ежедневно тысячи человек и посещаемость постоянно растёт. Мы создали панель лицензирования для защиты PHP скриптов от воровства и SEO панель для мониторинга наших сайтов и выбора верной стратегии их развития. Мы надеемся что то что мы создали пригодится Вам и возможно Вы поможете нам развиваться и совершенствоваться вместе с Вами.

Статистика форума

Темы
406.602
Сообщения
464.995
Пользователи
84.324
Новый пользователь
Lartys

Приложения форума для iOS и Android


У ркн там нет власти ;)
Приватные разговоры
Помощь Пользователи
    Вы не присоединились ни к одной комнате.