За последнюю неделю опубликовано 82 новых материалов.
Инструкция новичку Путеводитель по форуму Прокси для Telegram Показать подсказки , это бомба!

Скачать Усопшие / Шики: Мёртвый демон / Shiki [S01 + Спешлы] (2010) BDRip от Deadmauvlad | L2 бесплатно через торрент

  • Поучаствуй (в качестве покупателя) в любых пяти совместных покупках (кроме завершённых и "Моментальных") и получи группу "Новичок" навсегда -> ссылка на раздел
  • Получай до 480 рублей за каждого приглашенного пользователя!
    представляем Вам очередное расширение партнерской программы, подробности описаны тут -> ссылка
  • 90% материалов доступно к скачиванию после простой регистрации!
    Если же ты хочешь скачивать материалы без требования оставлять отзывы то получи группу "Новичок", 10 способов повышения описаны тут -> ссылка
  • К сожалению количество битых ссылок растет и мы уже не можем их оперативно восстанавливать поэтому просим помощи у каждого нашего пользователя.
    С сегодняшнего дня, за каждую восстановленную ссылку мы заплатим Вам.
    Подробнее тут -> ссылка
  • Перенесем твои заслуги с другого ресурса!
    Мы понимаем как сложно прокачивать аккаунты на форумах, вроде раскачал аккаунт, а тут появляется ресурс в 100 раз круче но тоже с системой прокачки и снова качать аккаунт...
    Предлагаем вам перенести Ваши заслуги на другом подобном ресурсе к нам.
    Подробности описаны тут -> ссылка
  • Вы можете получать по 2.5% с каждой покупки и продажи на маркете! Подробности в теме Партнёрская программа

Torrent_Bot

Торрент-Бот
Бот форума
4 Окт 2016
104
152
20


Год выпуска: 2010
Выпуск: с 9 июля 2010 по 31 декабря 2010
Трансляция: пятница в 01:15 [ночной сеанс] на Fuji TV
Автор оригинала: Оно Фуюми
Снято по манге: Усопшие
Жанр:вампиры, драма, мистика, триллер, ужасы
Режиссер: Масая Кавамо
В главных ролях: Тору Окава, Коки Утияма, Кадзуюки Окицу, Ватару Такаги, Ясуаки Такуми, Идзуми Савада, Нодзоми Сасаки, Харука Нагасима, Харука Томацу, Хаято Накада

Описание: Деревенька Сотоба, затерянная в японской горной глуши, и в конце XX века не сдается наступающей цивилизации. Да, старики уходят, а некоторые молодые, как десятиклассница Мэгуми Симидзу, мечтают сразу после школы сбежать в мегаполис. Но есть и другие – например, 32-летний Тосио Одзаки вернулся на родину и возглавил сельскую клинику, а семья Нацуно вообще переехала из города поближе к природе. Жизнь в глубинке течет тихо и безмятежно, однако появление таинственных обитателей недавно выстроенного «господского» дома на холме встряхнуло округу и дало пищу для пересудов всем – от истосковавшейся по гламуру Симидзу до последней деревенской кумушки. Вот только за интересными новостями пришли вести куда худшие…
В разгар августовского зноя, в дни, издавна заведенные для праздников и гаданий, в деревне начинают умирать люди. Первой жертвой стала излишне любопытная Мэгуми, за ней последовали другие. Начатое расследование показало – причины массовых смертей вовсе не в таинственной эпидемии, дело куда запутаннее… и страшнее. Все чаще мрачные взоры обращаются к дому на холме, все глубже в души проникает страх. Доктор Одзаки и другие местные жители, не утратившие мужества, дают себе клятву разобраться в тайне и идти до конца. Их судьбу решит великолепная фантазия автора «Двенадцати Царств»!






Страна: Япония
Студия: Doumu
Продолжительность: 24 серии x ~ 00:24:00
Перевод (Сериал): Любительский Двухголосый закадровый (RG Genshiken)
Озвучка: Kedra & Sashi Sutangu
Перевод (Спешлы): Любительский Одноголосый закадровый ZicAsakuro




Качество: BDRip [Исходник: Shiki BDRemux 1080p by Dyavlik]
Формат видео: AVI
Кодек: XviD
Видео: 704x400 (16:9), 23.976 fps, 1 694 kb/s (0.251 bit/pixel)
Аудио #1: MP3, 48.0 kHz, 2 ch, 192 kb/s, CBR | | R.G Genshiken
Аудио #2: AC-3, 48.0 kHz, 2 ch, 192 kb/s, CBR | | Орининал


Русские Субтитры: Есть


Список серий
Сериал:
01. Анемия.
02. Зараза.
03. Трагедия.
04. Смерть.
05. Обман.
06. Череп.
07. Злой дух.
08. Ночь.
09. Гроб.
10. Скорбь.
11. Расправа.
12. Зараза.
13. Трагедия.
14. Смерть.
15. Обман.
16. Череп.
17. Злой дух.
18. Смерть.
19. Гроб.
20. Печаль.
21. Первое убийство.
22. Последняя охота.
Спэшлы:
01. Episode 20.5
02. Episode 21.5


MediaInfo
General
Complete name : [Deadmau- RAWS] Shiki.2010.S01.BDRip.Rus.Jap.Deadmauvlad.Ep.01.avi
Format : AVI
Format/Info : Audio Video Interleave
File size : 350 MiB
Duration : 23 min 24 s
Overall bit rate : 2 093 kb/s
Movie name : [Deadmau- RAWS] Усопшие.2010.S01.BDRip.Rus.Jap.Deadmauvlad.Ep.01
Director : Encoder by Deadmauvlad
Genre : мистика, триллер, ужасы
Writing application : VirtualDubMod 1.5.10.3 | www.virtualdub-fr.org || (build 2550/release)
Original source form/Name : Аниме
Copyright : Encoder by Deadmauvlad
Comment : Encoder by Deadmauvlad

Video
ID : 0
Format : MPEG-4 Visual
Format profile : Advanced Simple@L5
Format settings : BVOP1 / Custom Matrix
Format settings, BVOP : 1
Format settings, QPel : No
Format settings, GMC : No warppoints
Format settings, Matrix : Custom
Codec ID : XVID
Codec ID/Hint : XviD
Duration : 23 min 24 s
Bit rate : 1 694 kb/s
Width : 704 pixels
Height : 400 pixels
Display aspect ratio : 16:9
Frame rate : 23.976 (24000/1001) FPS
Color space : YUV
Chroma subsampling : 4:2:0
Bit depth : 8 bits
Scan type : Progressive
Compression mode : Lossy
Bits/(Pixel*Frame) : 0.251
Stream size : 284 MiB (81%)
Writing library : XviD 73

Audio #1
ID : 1
Format : MPEG Audio
Format version : Version 1
Format profile : Layer 3
Codec ID : 55
Codec ID/Hint : MP3
Duration : 23 min 24 s
Bit rate mode : Constant
Bit rate : 192 kb/s
Channel(s) : 2 channels
Sampling rate : 48.0 kHz
Compression mode : Lossy
Stream size : 32.2 MiB (9%)
Alignment : Aligned on interleaves
Interleave, duration : 42 ms (1.00 video frame)
Interleave, preload duration : 504 ms

Audio #2
ID : 2
Format : AC-3
Format/Info : Audio Coding 3
Commercial name : Dolby Digital
Codec ID : 2000
Duration : 23 min 24 s
Bit rate mode : Constant
Bit rate : 192 kb/s
Channel(s) : 2 channels
Channel layout : L R
Sampling rate : 48.0 kHz
Frame rate : 31.250 FPS (1536 SPF)
Bit depth : 16 bits
Compression mode : Lossy
Stream size : 32.2 MiB (9%)
Alignment : Split accross interleaves
Interleave, duration : 42 ms (1.00 video frame)
Interleave, preload duration : 500 ms



Скриншоты

Особенности релиза
Отсутствует тв цензура в виде прикрытия гуро сцен (кровь/ расчлененка) в BD издании полноценный релиз аниме ...

Обзор тут
> > > https://www.sankakucomplex.com/2010/11/05/shiki-guro-vivisection-anime/
> > > https://www.sankakucomplex.com/2011/01/01/shiki-guro-finale-delivers-crushing-ending/


Релиз / Автор рипа: >Deadmauvlad<

 

Вложения

  • 16,8 KB Просмотры: 0
    Личеров 0
    Сидеров 0
    Файлов 48
    Объем 8,2 GB

Привет!

Мы группа людей которые решили помочь другим в решении их проблем, а так же пользователям с поиском самых свежих и качественных инфопродуктов. За 4 с небольшим месяца мы создали этот форум на который заходят ежедневно тысячи человек и посещаемость постоянно растёт. Мы создали панель лицензирования для защиты PHP скриптов от воровства и SEO панель для мониторинга наших сайтов и выбора верной стратегии их развития. Мы надеемся что то что мы создали пригодится Вам и возможно Вы поможете нам развиваться и совершенствоваться вместе с Вами.

Статистика форума

Темы
404.542
Сообщения
461.452
Пользователи
80.095
Новый пользователь
Irissmoon

Приложения форума для iOS и Android


У ркн там нет власти ;)
Приватные разговоры
Помощь Пользователи
    Вы не присоединились ни к одной комнате.