За последнюю неделю опубликовано 63 новых материалов.
Инструкция новичку Путеводитель по форуму Прокси для Telegram Показать подсказки , это бомба!

Скачать Управляя полетами / Pushing Tin (1999) WEB-DL 1080p | P, P2 бесплатно через торрент

  • Поучаствуй (в качестве покупателя) в любых пяти совместных покупках (кроме завершённых и "Моментальных") и получи группу "Новичок" навсегда -> ссылка на раздел
  • Получай до 480 рублей за каждого приглашенного пользователя!
    представляем Вам очередное расширение партнерской программы, подробности описаны тут -> ссылка
  • 90% материалов доступно к скачиванию после простой регистрации!
    Если же ты хочешь скачивать материалы без требования оставлять отзывы то получи группу "Новичок", 10 способов повышения описаны тут -> ссылка
  • К сожалению количество битых ссылок растет и мы уже не можем их оперативно восстанавливать поэтому просим помощи у каждого нашего пользователя.
    С сегодняшнего дня, за каждую восстановленную ссылку мы заплатим Вам.
    Подробнее тут -> ссылка
  • Перенесем твои заслуги с другого ресурса!
    Мы понимаем как сложно прокачивать аккаунты на форумах, вроде раскачал аккаунт, а тут появляется ресурс в 100 раз круче но тоже с системой прокачки и снова качать аккаунт...
    Предлагаем вам перенести Ваши заслуги на другом подобном ресурсе к нам.
    Подробности описаны тут -> ссылка
  • Вы можете получать по 2.5% с каждой покупки и продажи на маркете! Подробности в теме Партнёрская программа
Если Вы не хотите скачивать, Вы всегда можетепосмотретьонлайн, просто нажмите кнопку ниже :

Открыть плеер

Torrent_Bot

Торрент-Бот
Бот форума
4 Окт 2016
92
160
20


Информация о фильме
Название: Управляя полетами
Оригинальное название: Pushing Tin
Год выхода: 1999
Жанр: Драма, мелодрама, комедия
Режиссер: Майк Ньюэлл
В ролях: Джон Кьюсак, Билли Боб Торнтон, Кейт Бланшетт, Анджелина Джоли, Джейк Уэбер, Курт Фуллер, Викки Льюис, Мэтт Росс, Джерри Грэйсон, Майкл Уиллис, Филип Акин, Майк О’Мэлли, Нил Кроун, Мэтт Гордон, Джо Пинг, Дуайт МакФи, Кэтрин Ллойд Барнс

О фильме:
Ник Фальзоне - самый занятой и самый лучший диспетчер на Лонг-Айленде, жизнь которого не отличалась разнообразием, и вдруг в его жизнь врывается Рассел Белл, как ковбой на мотоцикле. Подбадриваемые кофеином, двое молодых людей начинают суматошную борьбу,соревнуясь в остроумии и силе воли, но победитель должен быть только один…




Страна: США, Германия
Студия: 3 Miles Apart Productions Ltd., Art Linson Productions, Dogstar Films
Продолжительность: 02:03:48
Перевод: Профессиональный многоголосый, профессиональный двухголосый

Файл
Кодек: AVC
Качество: WEB-DL 1080p | Pushing.Tin.1999.1080p.AMZN.WEB-DL.DDP5.1.H.264-ABM
Видео: MPEG-4 AVC, 9522 Kбит/с, 1920x816, 23.976 кадр/с
Аудио #1: Русский (АС3, 6 ch, 448 Кбит/с, 48.0 KHz) Профессиональный (многоголосый, закадровый)
Аудио #2: Русский (АС3, 6 ch, 448 Кбит/с, 48.0 KHz) Профессиональный (двухголосый, закадровый) НТВ+
Аудио #3: Английский (АС3, 6 ch, 640 Кбит/с, 48.0 KHz)
Субтитры: Русские, английские
MediaInfo
Источник: Pushing.Tin.1999.1080p.AMZN.WEB-DL.DDP5.1.H.264-ABM
General
Unique ID : 214050067506221759091526334850191583700 (0xA1088B203FCD708BBA5A776ECC7FE9D4)
Complete name : Pushing.Tin.1999.AMZN.WEB-DL.1080p.mkv
Format : Matroska
Format version : Version 4
File size : 9.56 GiB
Duration : 2 h 3 min
Overall bit rate : 11.1 Mb/s
Encoded date : UTC 2020-04-22 09:55:27
Writing application : mkvmerge v7.1.0 ('Good Love') 64bit built on Jul 27 2014 13:06:55
Writing library : libebml v1.3.0 + libmatroska v1.4.1

Video
ID : 1
Format : AVC
Format/Info : Advanced Video Codec
Format profile : [email protected]
Format settings : CABAC / 4 Ref Frames
Format settings, CABAC : Yes
Format settings, Reference fra : 4 frames
Codec ID : V_MPEG4/ISO/AVC
Duration : 2 h 3 min
Bit rate mode : Constant
Bit rate : 9 522 kb/s
Nominal bit rate : 10 000 kb/s
Width : 1 920 pixels
Height : 816 pixels
Display aspect ratio : 2.35:1
Original display aspect ratio : 2.35:1
Frame rate mode : Constant
Frame rate : 23.976 (24000/1001) FPS
Color space : YUV
Chroma subsampling : 4:2:0
Bit depth : 8 bits
Scan type : Progressive
Bits/(Pixel*Frame) : 0.253
Stream size : 8.23 GiB (86%)
Language : English
Default : Yes
Forced : No
Color range : Limited
Color primaries : BT.709
Transfer characteristics : BT.709
Matrix coefficients : BT.709

Audio #1
ID : 2
Format : AC-3
Format/Info : Audio Coding 3
Commercial name : Dolby Digital
Codec ID : A_AC3
Duration : 2 h 3 min
Bit rate mode : Constant
Bit rate : 448 kb/s
Channel(s) : 6 channels
Channel layout : L R C LFE Ls Rs
Sampling rate : 48.0 kHz
Frame rate : 31.250 FPS (1536 SPF)
Compression mode : Lossy
Stream size : 397 MiB (4%)
Title : MVO
Language : Russian
Service kind : Complete Main
Default : Yes
Forced : No

Audio #2
ID : 3
Format : AC-3
Format/Info : Audio Coding 3
Commercial name : Dolby Digital
Codec ID : A_AC3
Duration : 2 h 3 min
Bit rate mode : Constant
Bit rate : 448 kb/s
Channel(s) : 6 channels
Channel layout : L R C LFE Ls Rs
Sampling rate : 48.0 kHz
Frame rate : 31.250 FPS (1536 SPF)
Compression mode : Lossy
Stream size : 397 MiB (4%)
Title : DVO | НТВ+
Language : Russian
Service kind : Complete Main
Default : No
Forced : No

Audio #3
ID : 4
Format : AC-3
Format/Info : Audio Coding 3
Commercial name : Dolby Digital
Codec ID : A_AC3
Duration : 2 h 3 min
Bit rate mode : Constant
Bit rate : 640 kb/s
Channel(s) : 6 channels
Channel layout : L R C LFE Ls Rs
Sampling rate : 48.0 kHz
Frame rate : 31.250 FPS (1536 SPF)
Compression mode : Lossy
Stream size : 567 MiB (6%)
Language : English
Service kind : Complete Main
Default : No
Forced : No

Text #1
ID : 5
Format : UTF-8
Codec ID : S_TEXT/UTF8
Codec ID/Info : UTF-8 Plain Text
Duration : 1 h 57 min
Bit rate : 102 b/s
Count of elements : 1546
Stream size : 88.2 KiB (0%)
Language : Russian
Default : No
Forced : No

Text #2
ID : 6
Format : UTF-8
Codec ID : S_TEXT/UTF8
Codec ID/Info : UTF-8 Plain Text
Duration : 1 h 55 min
Bit rate : 62 b/s
Count of elements : 1369
Stream size : 52.7 KiB (0%)
Language : English
Default : No
Forced : No

Text #3
ID : 7
Format : UTF-8
Codec ID : S_TEXT/UTF8
Codec ID/Info : UTF-8 Plain Text
Duration : 2 h 3 min
Bit rate : 87 b/s
Count of elements : 1915
Stream size : 79.4 KiB (0%)
Title : SDH
Language : English
Default : No
Forced : No

Menu
00:00:00.000 : en:Main Titles
00:03:42.920 : en:The Zone
00:08:14.280 : en:Mrs. Zone
00:11:59.880 : en:A Near-Miss
00:15:08.320 : en:The New Guy
00:19:59.200 : en:Drop the Match
00:22:42.480 : en:Dr. Freeze
00:24:51.560 : en:The Cowboy Controller
00:30:54.920 : en:Russell's Wife
00:36:34.680 : en:The Bet
00:40:03.960 : en:Where's The Hole?
00:41:40.760 : en:The Donut Fix
00:43:48.240 : en:A Humanitarian Gesture
00:50:41.240 : en:Follow Me Home...
00:52:45.680 : en:Getting Personal
00:57:48.040 : en:Dinner at Enzo's
01:02:17.560 : en:Unbelievably Personal
01:07:10.800 : en:The Language of Love
01:10:58.840 : en:The Unwritten Rule
01:13:44.280 : en:Daddy's Gone
01:19:01.880 : en:A Little Turbulence
01:23:28.240 : en:26 Minutes
01:30:18.680 : en:The Hero
01:32:45.040 : en:Losing It
01:37:05.080 : en:Where's Russell?
01:39:04.920 : en:I Want My Life Back!
01:44:29.160 : en:You Gotta Lose Control
01:45:48.120 : en:Back in the Zone
01:49:03.880 : en:Return to Me
01:53:14.680 : en:Credits
Скриншоты
 

Вложения

  • 24,8 KB Просмотры: 0
    Личеров 0
    Сидеров 0
    Файлов 1
    Объем 9,6 GB

Привет!

Мы группа людей которые решили помочь другим в решении их проблем, а так же пользователям с поиском самых свежих и качественных инфопродуктов. За 4 с небольшим месяца мы создали этот форум на который заходят ежедневно тысячи человек и посещаемость постоянно растёт. Мы создали панель лицензирования для защиты PHP скриптов от воровства и SEO панель для мониторинга наших сайтов и выбора верной стратегии их развития. Мы надеемся что то что мы создали пригодится Вам и возможно Вы поможете нам развиваться и совершенствоваться вместе с Вами.

Статистика форума

Темы
406.656
Сообщения
465.106
Пользователи
84.674
Новый пользователь
Юрий 1990

Приложения форума для iOS и Android


У ркн там нет власти ;)
Приватные разговоры
Помощь Пользователи
    Вы не присоединились ни к одной комнате.