За последнюю неделю опубликовано 58 новых материалов.
Инструкция новичку Путеводитель по форуму Прокси для Telegram Показать подсказки , это бомба!

Скачать Универ. Новая общага [Новогодняя серия] (2014) WEB-DLRip от ivandubskoj бесплатно через торрент

  • Поучаствуй (в качестве покупателя) в любых пяти совместных покупках (кроме завершённых и "Моментальных") и получи группу "Новичок" навсегда -> ссылка на раздел
  • Получай до 480 рублей за каждого приглашенного пользователя!
    представляем Вам очередное расширение партнерской программы, подробности описаны тут -> ссылка
  • 90% материалов доступно к скачиванию после простой регистрации!
    Если же ты хочешь скачивать материалы без требования оставлять отзывы то получи группу "Новичок", 10 способов повышения описаны тут -> ссылка
  • К сожалению количество битых ссылок растет и мы уже не можем их оперативно восстанавливать поэтому просим помощи у каждого нашего пользователя.
    С сегодняшнего дня, за каждую восстановленную ссылку мы заплатим Вам.
    Подробнее тут -> ссылка
  • Перенесем твои заслуги с другого ресурса!
    Мы понимаем как сложно прокачивать аккаунты на форумах, вроде раскачал аккаунт, а тут появляется ресурс в 100 раз круче но тоже с системой прокачки и снова качать аккаунт...
    Предлагаем вам перенести Ваши заслуги на другом подобном ресурсе к нам.
    Подробности описаны тут -> ссылка
  • Вы можете получать по 2.5% с каждой покупки и продажи на маркете! Подробности в теме Партнёрская программа
Если Вы не хотите скачивать, Вы всегда можетепосмотретьонлайн, просто нажмите кнопку ниже :

Открыть плеер

Torrent_Bot

Торрент-Бот
Бот форума
4 Окт 2016
123
108
20
Информация о фильме
Оригинальное название: Универ. Новая общага (Новогодняя серия)
Год выхода: 2014
Жанр:Комедия, ситком
Режиссёр: Михаил Старчак
В ролях: Арарат Кещян, Станислав Ярушин, Анна Кузина, Настасья Самбурская, Анна Хилькевич, Александр Стекольников, Андрей Лебедев, Гарик Бульдог Харламов, Тимур Батрутдинов, Иван Савченко, Константин Кузьмин, Джамал Теунов, Артак Казарян, Зураб Миминошвили

О фильме:
Новый год – это праздник, любимый с детства. Время, когда в каждом доме царит суета и запах мандаринов. И даже если это год какой-то овцы, все ждут от него только хорошего. Для кого-то Новый год это повод увидеться с родственниками, кто-то старается перед Новым годом вернуть все долги. Для кого-то это просто повод выпить. Но абсолютно для всех, Новый год это волшебное время, время, когда случаются настоящие чудеса. Поэтому создатели сериала подготовили для поклонников специальную праздничную новогоднюю серию. Канун Нового года... Майкл попробует приобщить армянских родственников к русской бане, Яна изведет себя и окружающих подготовкой к корпоративу, а Валентин Будейко - к финалу университетского брэйн-ринга. И только Кристина и Антон спокойно готовятся к почти семейной новогодней вечеринке в своем клубе. Но ничьи планы не сбудутся, потому что в Новый год возможно всё.... И всё превратится в обычный веселый бардак.

Страна: Россия, ТНТ, "Комеди Клаб Продакшн"
Продолжительность: 00:26:08
Перевод: Не требуется

Файл
Кодек: XviD
Качество: WEB-DLRip [Исходник: WEB-DL 720p]
Видео: XviD, 704x400 (16:9), 1736 Кбит/с, 25 кадр/с
Аудио: Русский, MP3, 48000 Гц, 128 Кбит/с, 2 канала (Стерео)

MediaInfo
General
Complete name : Univer.Novaya.obschaga.Novogodnyaya.WEB-DLRip.avi
Format : AVI
Format/Info : Audio Video Interleave
File size : 350 MiB
Duration : 26mn 8s
Overall bit rate : 1 874 Kbps
Writing application : VirtualDubMod 1.5.10.3 | www.virtualdub-fr.org || (build 2550/release)
Writing library : VirtualDubMod build 2550/release
Copyright : rip by ivandubskoj

Video
ID : 0
Format : MPEG-4 Visual
Format profile : Advanced Simple@L5
Format settings, BVOP : 1
Format settings, QPel : No
Format settings, GMC : No warppoints
Format settings, Matrix : Custom
Codec ID : XVID
Codec ID/Hint : XviD
Duration : 26mn 8s
Bit rate : 1 736 Kbps
Width : 704 pixels
Height : 400 pixels
Display aspect ratio : 16:9
Frame rate : 25.000 fps
Color space : YUV
Chroma subsampling : 4:2:0
Bit depth : 8 bits
Scan type : Progressive
Compression mode : Lossy
Bits/(Pixel*Frame) : 0.247
Stream size : 325 MiB (93%)
Writing library : XviD 73

Audio
ID : 1
Format : MPEG Audio
Format version : Version 1
Format profile : Layer 3
Codec ID : 55
Codec ID/Hint : MP3
Duration : 26mn 8s
Bit rate mode : Constant
Bit rate : 128 Kbps
Channel(s) : 2 channels
Sampling rate : 48.0 KHz
Compression mode : Lossy
Stream size : 23.9 MiB (7%)
Alignment : Aligned on interleaves
Interleave, duration : 40 ms (1.00 video frame)
Interleave, preload duration : 504 ms
Writing library : LAME3.99r
Encoding settings : -m s -V 4 -q 0 -lowpass 17 -b 128
Скриншоты

Автор рипа - ivandubskoj
 

Вложения

  • 14,7 KB Просмотры: 1
    Личеров 0
    Сидеров 0
    Файлов 1
    Объем 350,3 MB

Привет!

Мы группа людей которые решили помочь другим в решении их проблем, а так же пользователям с поиском самых свежих и качественных инфопродуктов. За 4 с небольшим месяца мы создали этот форум на который заходят ежедневно тысячи человек и посещаемость постоянно растёт. Мы создали панель лицензирования для защиты PHP скриптов от воровства и SEO панель для мониторинга наших сайтов и выбора верной стратегии их развития. Мы надеемся что то что мы создали пригодится Вам и возможно Вы поможете нам развиваться и совершенствоваться вместе с Вами.

Статистика форума

Темы
384.693
Сообщения
428.037
Пользователи
59.334
Новый пользователь
Алена Чи

Приложения форума для iOS и Android


У ркн там нет власти ;)
Приватные разговоры
Помощь Пользователи
    Вы не присоединились ни к одной комнате.