За последнюю неделю опубликовано 23 новых материалов.
Инструкция новичку Путеводитель по форуму Прокси для Telegram Показать подсказки , это бомба!

Скачать Универ. Новая общага [15x01-03] (2018) HDTVRip от GeneralFilm бесплатно через торрент

  • Поучаствуй (в качестве покупателя) в любых пяти совместных покупках (кроме завершённых и "Моментальных") и получи группу "Новичок" навсегда -> ссылка на раздел
  • Получай до 480 рублей за каждого приглашенного пользователя!
    представляем Вам очередное расширение партнерской программы, подробности описаны тут -> ссылка
  • 90% материалов доступно к скачиванию после простой регистрации!
    Если же ты хочешь скачивать материалы без требования оставлять отзывы то получи группу "Новичок", 10 способов повышения описаны тут -> ссылка
  • К сожалению количество битых ссылок растет и мы уже не можем их оперативно восстанавливать поэтому просим помощи у каждого нашего пользователя.
    С сегодняшнего дня, за каждую восстановленную ссылку мы заплатим Вам.
    Подробнее тут -> ссылка
  • Перенесем твои заслуги с другого ресурса!
    Мы понимаем как сложно прокачивать аккаунты на форумах, вроде раскачал аккаунт, а тут появляется ресурс в 100 раз круче но тоже с системой прокачки и снова качать аккаунт...
    Предлагаем вам перенести Ваши заслуги на другом подобном ресурсе к нам.
    Подробности описаны тут -> ссылка
  • Вы можете получать по 2.5% с каждой покупки и продажи на маркете! Подробности в теме Партнёрская программа
Если Вы не хотите скачивать, Вы всегда можетепосмотретьонлайн, просто нажмите кнопку ниже :

Открыть плеер

Torrent_Bot

Торрент-Бот
Бот форума
4 Окт 2016
122
116
20
Информация о фильме
Оригинальное название: Универ. Новая общага
Год выпуска: 2018
Жанр:Ситком, комедия
Режиссер: Константин Колесов
В ролях: Арарат Кещян, Александр Стекольников, Станислав Ярушин, Анна Кузина, Анна Хилькевич, Константин Шелягин, Григорий Кокоткин, Елена Валюшкина

О фильме:
Финальный сезон сериала «Универ» стартует 3 сентября. Ситком завершится четверной свадьбой и неожиданным возвращением старых героев. Первая серия «Универа» вышла в эфир ТНТ в 2008 году, когда Дима Билан выиграл «Евровидение», сборная России по хоккею — чемпионат мира, а «Зенит» — Кубок УЕФА. Ни о Монеточке, ни о Гречке, ни о Гнойном никто тогда и не догадывался. Выражения из ситкома разлетелись на цитаты (слово «мемы» тогда ещё не было так заразно): «пипец», «потеря потерь», «блин блинский» и «крутяк». Песня Кузи «Шняга шняжная» стала негласным гимном прекрасной студенческой жизни. «Универ» ширился, герои взрослели, влюблялись и расставались, уходили и возвращались, учились и тусовались. И теперь настало время попрощаться с ними.



Страна: Россия
Студия: «Комеди Клаб Продакшн»
Продолжительность: 3 x ~ 00:23:00
Перевод: Не требуется
Субтитры: нет

Файл
Формат: avi
Качество: HDTVRip
Видео: XviD build 73, 720x400 (16:9), 25.000 fps, ~ 1550 Kbps (~ 0.215 bit/pixel)
Звук: 48.0 kHz, AC3, 2/0 ch, 192 kbps

MediaInfo
General
Complete name : D:RazdachiUniver.s15.2018.XviD.HDTVRip.GeneralFilmUniver.s15.e01.avi
Format : AVI
Format/Info : Audio Video Interleave
File size : 305 MiB
Duration : 24 min 21 s
Overall bit rate : 1 751 kb/s
Writing application : VirtualDubMod 1.5.10.3 | www.virtualdub-fr.org || (build 2550/release)
Writing library : VirtualDubMod build 2550/release

Video
ID : 0
Format : MPEG-4 Visual
Format profile : Advanced Simple@L5
Format settings, BVOP : 1
Format settings, QPel : No
Format settings, GMC : No warppoints
Format settings, Matrix : Custom
Codec ID : XVID
Codec ID/Hint : XviD
Duration : 24 min 21 s
Bit rate : 1 549 kb/s
Width : 720 pixels
Height : 400 pixels
Display aspect ratio : 16:9
Frame rate : 25.000 FPS
Color space : YUV
Chroma subsampling : 4:2:0
Bit depth : 8 bits
Scan type : Progressive
Compression mode : Lossy
Bits/(Pixel*Frame) : 0.215
Stream size : 270 MiB (88%)
Writing library : XviD 73

Audio
ID : 1
Format : AC-3
Format/Info : Audio Coding 3
Format settings, Endianness : Big
Codec ID : 2000
Duration : 24 min 21 s
Bit rate mode : Constant
Bit rate : 192 kb/s
Channel(s) : 2 channels
Channel positions : Front: L R
Sampling rate : 48.0 kHz
Frame rate : 31.250 FPS (1536 SPF)
Bit depth : 16 bits
Compression mode : Lossy
Stream size : 33.5 MiB (11%)
Alignment : Split accross interleaves
Interleave, duration : 40 ms (1.00 video frame)
Interleave, preload duratio : 500 ms
Service kind : Complete Main
Скриншоты
Релиз от:
 

Вложения

  • 19 KB Просмотры: 1
    Личеров 0
    Сидеров 0
    Файлов 3
    Объем 915,6 MB

Привет!

Мы группа людей которые решили помочь другим в решении их проблем, а так же пользователям с поиском самых свежих и качественных инфопродуктов. За 4 с небольшим месяца мы создали этот форум на который заходят ежедневно тысячи человек и посещаемость постоянно растёт. Мы создали панель лицензирования для защиты PHP скриптов от воровства и SEO панель для мониторинга наших сайтов и выбора верной стратегии их развития. Мы надеемся что то что мы создали пригодится Вам и возможно Вы поможете нам развиваться и совершенствоваться вместе с Вами.

Статистика форума

Темы
385.054
Сообщения
430.355
Пользователи
62.963
Новый пользователь
maxim883

Приложения форума для iOS и Android


У ркн там нет власти ;)
Приватные разговоры
Помощь Пользователи
    Вы не присоединились ни к одной комнате.