За последнюю неделю опубликовано 105 новых материалов.
Инструкция новичку Путеводитель по форуму Прокси для Telegram Показать подсказки , это бомба!

Скачать Унесённые призраками / Sen to Chihiro no Kamikakushi (2001) HDTVRip 720p бесплатно через торрент

  • Поучаствуй (в качестве покупателя) в любых пяти совместных покупках (кроме завершённых и "Моментальных") и получи группу "Новичок" навсегда -> ссылка на раздел
  • Получай до 480 рублей за каждого приглашенного пользователя!
    представляем Вам очередное расширение партнерской программы, подробности описаны тут -> ссылка
  • 90% материалов доступно к скачиванию после простой регистрации!
    Если же ты хочешь скачивать материалы без требования оставлять отзывы то получи группу "Новичок", 10 способов повышения описаны тут -> ссылка
  • К сожалению количество битых ссылок растет и мы уже не можем их оперативно восстанавливать поэтому просим помощи у каждого нашего пользователя.
    С сегодняшнего дня, за каждую восстановленную ссылку мы заплатим Вам.
    Подробнее тут -> ссылка
  • Перенесем твои заслуги с другого ресурса!
    Мы понимаем как сложно прокачивать аккаунты на форумах, вроде раскачал аккаунт, а тут появляется ресурс в 100 раз круче но тоже с системой прокачки и снова качать аккаунт...
    Предлагаем вам перенести Ваши заслуги на другом подобном ресурсе к нам.
    Подробности описаны тут -> ссылка
  • Вы можете получать по 2.5% с каждой покупки и продажи на маркете! Подробности в теме Партнёрская программа

Torrent_Bot

Торрент-Бот
Бот форума
4 Окт 2016
118
147
20
Информация о фильме
Название: Унесённые призраками
Оригинальное название: Spirited Away
Год выхода: 2001
Жанр: Приключения, сказка, драма, фэнтези
Режиссер: Хаяо Миядзаки
В ролях: Руми Хираги, Мийу Ирино, Мари Нацуки, Такаши Найто, Ясуко Савагучи, Тацуя Гасюин, Рюноскэ Камики, Юми Тамаи Ё Ойзуми, Коба Хаяси

О фильме:
Маленькая Тихиро вместе с мамой и папой переезжают в новый дом. Заблудившись по дороге, они оказываются в странном пустынном городе, где их ждет великолепный пир. Родители с жадностью набрасываются на еду и к ужасу девочки превращаются в свиней, став пленниками злой колдуньи Юбабы, властительницы таинственного мира древних богов и могущественных духов.

Теперь, оказавшись одна среди магических существ и загадочных видений, отважная Тихиро должна придумать, как избавить своих родителей от чар коварной старухи и спастись из пугающего царства призраков…

Доп. инфо
Т.к. это HDTV рип, в правом верхнем углу присутствует логотип канала (вообще не мешает) и на экране периодически появляются надписи на японском(видимо в местах стыковки эпизодов, как на 3м скрине) - тоже не мешают. Дубляж идет почти тютелька - в тютельку, а вот закадровые слегка "гуляют" - в начале звук чуть позади, в конце чуть впереди - буквально 100-200 милисекунд, дискомфорта не вызывает.

921396d69e4f151e308acd8d1ec0e102.gif

Страна: Япония
Студия: Гибли (Ghibli)
Продолжительность: 02:04:29
Перевод: Дублированный, Авторский (одноголосы закадровый)
Файл
Кодек: h.264
Качество: HDTVRip 720p
Видео: 1280x696, 23.976 fps, 3477 Kbps, 0.163 Bits/(Pixel*Frame)
Audio #1: DTS, 755 Kbps, 6 channels (дубляж CP Digital)
Audio #2: AC3, 320 Kbps, 6 channels (авторский Артём Толстобров)
Audio #3: AC3, 448 Kbps, 6 channels (студия Tycoon)

MI
Format : Matroska
Format version : Version 2
File size : 4.35 GiB
Duration : 2h 4mn
Overall bit rate : 5 002 Kbps
Encoded date : UTC 2013-02-02 06:58:04
Writing application : mkvmerge v5.6.0 ('Kenya Kane') built on May 27 2012 16:44:04
Writing library : libebml v1.2.3 + libmatroska v1.3.0

Video
ID : 1
Format : AVC
Format/Info : Advanced Video Codec
Format profile : High@L4.1
Format settings, CABAC : Yes
Format settings, ReFrames : 9 frames
Codec ID : V_MPEG4/ISO/AVC
Duration : 2h 4mn
Bit rate : 3 477 Kbps
Width : 1 280 pixels
Height : 696 pixels
Display aspect ratio : 1.85:1
Frame rate : 23.976 fps
Color space : YUV
Chroma subsampling : 4:2:0
Bit depth : 8 bits
Scan type : Progressive
Bits/(Pixel*Frame) : 0.163
Stream size : 2.94 GiB (68%)
Writing library : x264 core 129 r2230 1cffe9f
Encoding settings : cabac=1 / ref=9 / deblock=1:0:0 / analyse=0x3:0x133 / me=umh / subme=11 / psy=1 / psy_rd=1.00:0.00 / mixed_ref=1 / me_range=32 / chroma_me=1 / trellis=2 / 8x8dct=1 / cqm=0 / deadzone=21,11 / fast_pskip=0 / chroma_qp_offset=-2 / threads=9 / lookahead_threads=1 / sliced_threads=0 / nr=0 / decimate=1 / interlaced=0 / bluray_compat=0 / constrained_intra=0 / bframes=8 / b_pyramid=2 / b_adapt=2 / b_bias=0 / direct=3 / weightb=1 / open_gop=0 / weightp=2 / keyint=250 / keyint_min=23 / scenecut=40 / intra_refresh=0 / rc_lookahead=60 / rc=2pass / mbtree=1 / bitrate=3477 / ratetol=1.0 / qcomp=0.60 / qpmin=0 / qpmax=69 / qpstep=4 / cplxblur=20.0 / qblur=0.5 / ip_ratio=1.40 / aq=1:1.00
Language : English
Default : Yes
Forced : No

Audio #1
ID : 2
Format : DTS
Format/Info : Digital Theater Systems
Codec ID : A_DTS
Duration : 2h 4mn
Bit rate mode : Constant
Bit rate : 755 Kbps
Channel(s) : 6 channels
Channel positions : Front: L C R, Side: L R, LFE
Sampling rate : 48.0 KHz
Bit depth : 24 bits
Compression mode : Lossy
Stream size : 672 MiB (15%)
Title : DTS; 5.1ch; 768kbps [CP Digital]
Language : Russian
Default : Yes
Forced : No

Audio #2
ID : 3
Format : AC-3
Format/Info : Audio Coding 3
Mode extension : CM (complete main)
Format settings, Endianness : Big
Codec ID : A_AC3
Duration : 2h 4mn
Bit rate mode : Constant
Bit rate : 320 Kbps
Channel(s) : 6 channels
Channel positions : Front: L C R, Side: L R, LFE
Sampling rate : 48.0 KHz
Bit depth : 16 bits
Compression mode : Lossy
Stream size : 285 MiB (6%)
Title : Tolstobrov
Language : Russian
Default : No
Forced : No

Audio #3
ID : 4
Format : AC-3
Format/Info : Audio Coding 3
Mode extension : CM (complete main)
Format settings, Endianness : Big
Codec ID : A_AC3
Duration : 2h 4mn
Bit rate mode : Constant
Bit rate : 448 Kbps
Channel(s) : 6 channels
Channel positions : Front: L C R, Side: L R, LFE
Sampling rate : 48.0 KHz
Bit depth : 16 bits
Compression mode : Lossy
Stream size : 399 MiB (9%)
Title : Tycoon
Language : Russian
Default : No
Forced : No

x264
x264 [info]: frame I:1378 Avg QP:14.16 size:192954
x264 [info]: frame P:45337 Avg QP:16.91 size: 47127
x264 [info]: frame B:132380 Avg QP:19.80 size: 6379

Скриншоты
05482331823c495a222d7c89c95d1cb7.jpg7414c467d988085dda4ecbdb91a2c5ff.jpg667c05bef2d916589eac0be91db334b5.jpg304186a4c5a3efad651277699f1b1b49.jpge1ded2ea1e24861e0e26a1af8d89d257.jpg
 

Вложения

Привет!

Мы группа людей которые решили помочь другим в решении их проблем, а так же пользователям с поиском самых свежих и качественных инфопродуктов. За 4 с небольшим месяца мы создали этот форум на который заходят ежедневно тысячи человек и посещаемость постоянно растёт. Мы создали панель лицензирования для защиты PHP скриптов от воровства и SEO панель для мониторинга наших сайтов и выбора верной стратегии их развития. Мы надеемся что то что мы создали пригодится Вам и возможно Вы поможете нам развиваться и совершенствоваться вместе с Вами.

Статистика форума

Темы
394.378
Сообщения
446.638
Пользователи
75.262
Новый пользователь
mas90

Приложения форума для iOS и Android


У ркн там нет власти ;)
Приватные разговоры
Помощь Пользователи
    Вы не присоединились ни к одной комнате.