За последнюю неделю опубликовано 98 новых материалов.
Инструкция новичку Путеводитель по форуму Прокси для Telegram Показать подсказки , это бомба!

Скачать Унесённые призраками / Sen to Chihiro no kamikakushi (2001) BDRip-HEVC 1080p бесплатно через торрент

  • Поучаствуй (в качестве покупателя) в любых пяти совместных покупках (кроме завершённых и "Моментальных") и получи группу "Новичок" навсегда -> ссылка на раздел
  • Получай до 480 рублей за каждого приглашенного пользователя!
    представляем Вам очередное расширение партнерской программы, подробности описаны тут -> ссылка
  • 90% материалов доступно к скачиванию после простой регистрации!
    Если же ты хочешь скачивать материалы без требования оставлять отзывы то получи группу "Новичок", 10 способов повышения описаны тут -> ссылка
  • К сожалению количество битых ссылок растет и мы уже не можем их оперативно восстанавливать поэтому просим помощи у каждого нашего пользователя.
    С сегодняшнего дня, за каждую восстановленную ссылку мы заплатим Вам.
    Подробнее тут -> ссылка
  • Перенесем твои заслуги с другого ресурса!
    Мы понимаем как сложно прокачивать аккаунты на форумах, вроде раскачал аккаунт, а тут появляется ресурс в 100 раз круче но тоже с системой прокачки и снова качать аккаунт...
    Предлагаем вам перенести Ваши заслуги на другом подобном ресурсе к нам.
    Подробности описаны тут -> ссылка
  • Вы можете получать по 2.5% с каждой покупки и продажи на маркете! Подробности в теме Партнёрская программа

Torrent_Bot

Торрент-Бот
Бот форума
4 Окт 2016
79
194
20
Информация о фильме
Название: Унесённые призраками
Оригинальное название: Sen to Chihiro no kamikakushi
Год выхода: 2001
Жанр: аниме, мультфильм, фэнтези, приключения, семейный
Режиссер: Хаяо Миядзаки
В ролях: Руми Хираги, Такаши Найто, Ясуко Савагучи, Ирино Мию, Бунта Сугавара, Мари Нацуки, Юми Тамаи, Тацуя Гасюин, Акио Накамура, Рюноскэ Камики

О фильме:
Маленькая Тихиро вместе с мамой и папой переезжают в новый дом. Заблудившись по дороге, они оказываются в странном пустынном городе, где их ждет великолепный пир. Родители с жадностью набрасываются на еду и к ужасу девочки превращаются в свиней, став пленниками злой колдуньи Юбабы, властительницы таинственного мира древних богов и могущественных духов.

Теперь, оказавшись одна среди магических существ и загадочных видений, отважная Тихиро должна придумать, как избавить своих родителей от чар коварной старухи и спастись из пугающего царства призраков…

Знаете ли вы, что...
• Фэнтезийная сцена принятия ванны речным духом основана на реальных событиях в жизни Миядзаки, который однажды участвовал в очистке реки и среди прочего достал с ее дна велосипед.
• Это первый фильм, достигший планки сборов в 200 млн. долларов еще до проката на территории США.
• Семья Тихиро путешествовала на седане первого поколения модели A4 марки Audi.
• Дословно название фильма переводится как «Сэн и таинственное исчезновение Тихиро», а «Унесенные призраками»(«Spirited away») — придуманное западными прокатчиками название.
• Персонаж «Безликий» по многим причинам олицетворяет червяка-шелкопряда (Silk Worm), играющего значительную роль в японской культуре.
• Внешность большинства богов Миядзаки придумал самостоятельно, часть почерпнул из японского фольклора.
• По изначальному замыслу режиссера фильм должен был длиться более трех часов, но его пришлось изрядно сократить.
MediaInfo
General
Unique ID : 29392142618796250494361184684089719856 (0x161CB883B8EDD55EE4729B6F10B2BC30)
Complete name : d:VideosУнесённые призраками.2001.BDRip.1080p.HEVC.mkv
Format : Matroska
Format version : Version 4 / Version 2
File size : 4.50 GiB
Duration : 2 h 4 min
Overall bit rate : 5 170 kb/s
Encoded date : UTC 2017-03-10 20:02:12
Writing application : Lavf57.57.100
Writing library : Lavf57.57.100 / Lavf57.57.100
ErrorDetectionType : Per level 1

Video
ID : 1
Format : HEVC
Format/Info : High Efficiency Video Coding
Format profile : [email protected]@Main
Codec ID : V_MPEGH/ISO/HEVC
Duration : 2 h 4 min
Bit rate : 4 171 kb/s
Width : 1 920 pixels
Height : 1 036 pixels
Display aspect ratio : 1.85:1
Frame rate mode : Constant
Frame rate : 23.976 (24000/1001) FPS
Color space : YUV
Chroma subsampling : 4:2:0
Bit depth : 8 bits
Bits/(Pixel*Frame) : 0.087
Stream size : 3.63 GiB (81%)
Writing library : Lavc57.66.101 nvenc_hevc
Language : Japanese
Default : Yes
Forced : No
DURATION : 02:04:32.303000000

Audio #1
ID : 2
Format : AC-3
Format/Info : Audio Coding 3
Mode extension : CM (complete main)
Format settings, Endianness : Big
Codec ID : A_AC3
Duration : 2 h 4 min
Bit rate mode : Constant
Bit rate : 448 kb/s
Channel(s) : 6 channels
Channel positions : Front: L C R, Side: L R, LFE
Sampling rate : 48.0 kHz
Frame rate : 31.250 FPS (1536 spf)
Bit depth : 16 bits
Compression mode : Lossy
Delay relative to video : -5 ms
Stream size : 399 MiB (9%)
Writing library : Lavc57.66.101 ac3_fixed
Language : Russian
Default : No
Forced : No
DURATION : 02:04:32.287000000

Audio #2
ID : 3
Format : AC-3
Format/Info : Audio Coding 3
Mode extension : CM (complete main)
Format settings, Endianness : Big
Codec ID : A_AC3
Duration : 2 h 4 min
Bit rate mode : Constant
Bit rate : 448 kb/s
Channel(s) : 6 channels
Channel positions : Front: L C R, Side: L R, LFE
Sampling rate : 48.0 kHz
Frame rate : 31.250 FPS (1536 spf)
Bit depth : 16 bits
Compression mode : Lossy
Delay relative to video : -5 ms
Stream size : 399 MiB (9%)
Writing library : Lavc57.66.101 ac3_fixed
Language : English
Default : No
Forced : No
DURATION : 02:04:32.256000000

Text #1
ID : 4
Format : UTF-8
Codec ID : S_TEXT/UTF8
Codec ID/Info : UTF-8 Plain Text
Language : Russian
Default : No
Forced : No
DURATION : 02:01:26.605000000

Text #2
ID : 5
Format : UTF-8
Codec ID : S_TEXT/UTF8
Codec ID/Info : UTF-8 Plain Text
Language : English
Default : No
Forced : No
DURATION : 02:04:29.995000000

Menu
00:00:00.000 : :Chapter 01
00:01:39.098 : :Chapter 02
00:03:16.236 : :Chapter 03
00:07:23.526 : :Chapter 04
00:10:45.394 : :Chapter 05
00:17:03.021 : :Chapter 06
00:22:48.532 : :Chapter 07
00:28:36.047 : :Chapter 08
00:33:28.172 : :Chapter 09
00:38:21.674 : :Chapter 10
00:44:11.815 : :Chapter 11
00:48:26.820 : :Chapter 12
00:54:31.351 : :Chapter 13
01:02:09.016 : :Chapter 14
01:08:11.587 : :Chapter 15
01:14:36.847 : :Chapter 16
01:19:10.579 : :Chapter 17
01:25:39.759 : :Chapter 18
01:31:18.889 : :Chapter 19
01:37:33.805 : :Chapter 20
01:45:18.937 : :Chapter 21
01:50:25.118 : :Chapter 22
01:52:51.097 : :Chapter 23
01:55:14.198 : :Chapter 24
02:00:53.579 : :Chapter 25
02:04:31.255 : :Chapter 26
Награды
f9f8fa4e19e1e51c0e583ed2fe1222fb.jpg
Top Кинопоиск: #47


921396d69e4f151e308acd8d1ec0e102.gif

Страна: Япония
Студия: Studio Ghibli
Продолжительность: 02:04:32
Перевод: русский (полное дублирование, Невафильм), английский (полное дублирование).

Файл
Кодек: h.265
Качество: BDRip 1080p HEVC
Видео: 4 171 kb/s, HEVC, 1920x1036, 23.976fps.
Звук:
d9068bb6abdb7ddf9565afcfc1b7388c.png Russian, ac3, 48000 Hz, 5.1, 448 kb/s.
5964b3da539f6724286cf0e9d0c56a17.png English, ac3, 48000 Hz, 5.1, 448 kb/s.
Субтитры: Русские, Английские.

Скриншоты
71b1fcbf7551d0f4c858f87178153141.jpg233f0bfa29084dad97259026dfc6837a.jpg0dba6f9bb13d24d50c7c56afaaacf20c.jpg167666151caf84c7faed0cf7bc5dcd06.jpg3ab3fba17d52088a2f0ca1962ebdb99b.jpg16ba2ab7e58eba2368b685d8a5af9b2b.jpg
 

Вложения

Привет!

Мы группа людей которые решили помочь другим в решении их проблем, а так же пользователям с поиском самых свежих и качественных инфопродуктов. За 4 с небольшим месяца мы создали этот форум на который заходят ежедневно тысячи человек и посещаемость постоянно растёт. Мы создали панель лицензирования для защиты PHP скриптов от воровства и SEO панель для мониторинга наших сайтов и выбора верной стратегии их развития. Мы надеемся что то что мы создали пригодится Вам и возможно Вы поможете нам развиваться и совершенствоваться вместе с Вами.

Статистика форума

Темы
414.370
Сообщения
475.396
Пользователи
96.561
Новый пользователь
starushka

Приложения форума для iOS и Android


У ркн там нет власти ;)
Приватные разговоры
Помощь Пользователи
    Вы не присоединились ни к одной комнате.