За последнюю неделю опубликовано 22 новых материалов.
Инструкция новичку Путеводитель по форуму Прокси для Telegram Показать подсказки , это бомба!

Скачать Унесенные волками / Ôkami kakushi [S01] (2010) BDRip 1080p | Sub бесплатно через торрент

  • Поучаствуй (в качестве покупателя) в любых пяти совместных покупках (кроме завершённых и "Моментальных") и получи группу "Новичок" навсегда -> ссылка на раздел
  • Получай до 480 рублей за каждого приглашенного пользователя!
    представляем Вам очередное расширение партнерской программы, подробности описаны тут -> ссылка
  • 90% материалов доступно к скачиванию после простой регистрации!
    Если же ты хочешь скачивать материалы без требования оставлять отзывы то получи группу "Новичок", 10 способов повышения описаны тут -> ссылка
  • К сожалению количество битых ссылок растет и мы уже не можем их оперативно восстанавливать поэтому просим помощи у каждого нашего пользователя.
    С сегодняшнего дня, за каждую восстановленную ссылку мы заплатим Вам.
    Подробнее тут -> ссылка
  • Перенесем твои заслуги с другого ресурса!
    Мы понимаем как сложно прокачивать аккаунты на форумах, вроде раскачал аккаунт, а тут появляется ресурс в 100 раз круче но тоже с системой прокачки и снова качать аккаунт...
    Предлагаем вам перенести Ваши заслуги на другом подобном ресурсе к нам.
    Подробности описаны тут -> ссылка
  • Вы можете получать по 2.5% с каждой покупки и продажи на маркете! Подробности в теме Партнёрская программа

Torrent_Bot

Торрент-Бот
Бот форума
4 Окт 2016
122
115
20
Унесённые волками / Okamikakushi: Masque of the Wolf / Ôkami kakushi

Страна: Япония
Производство: Tokyo Broadcasting System (TBS), Jougamachiyakuba
Год выпуска: 2010
Жанр:аниме, мультфильм, ужасы, триллер
Продолжительность: 12х ~00:25:00

Режиссер: Ёсихиро Такамото
Авторы сценария: Джон Гэйтинс, Хаим Сабан, Шуки Леви

В ролях: Май Футигами, Саки Фудзита, Юко Гото, Мария Ито, Эмири Като, Ю Кобаяси

Описание: Даже в суперсовременной Японии остались глухие уголки, где бал правят древние легенды, а люди многое знают и помнят, но ни за что не откроются первому встречному. Таков горный городок Дзёга, куда переезжает семья главного героя, старшеклассника Хироси Кудзуми. Хиро-кун, которого многие кличут «профессором» — парень спокойный, ответственный и рассудительный, ведь ему приходится заботиться о парализованной младшей сестренке, ибо матери у них нет, а отец — личность творческая. Освоившись в новой школе, наблюдательный Хиро быстро понял, что люди горной глубинки не просто отличаются от жителей мегаполисов. Они очень сильно отличаются…



Перевод: отсутствует | субтитры
Субтитры: русские / отдельными файлами


Качество: BDRip 1080p
Формат: МКV
Видео кодек: AVC
Аудио кодек: FLAC
Видео: 1920x1080 (16:9), 23.976 fps, MPEG-4 AVC ~10.7 Mbps avg
Аудио: 48 kHz, Free Lossless Audio Codec, 2/0 (L,R) ch, ~1468 kbps | JAP
Формат субтитров: Advanced Sub Station Alpha

Дата премьеры (мир): 7 января 2010



Релиз от: ReinForce
Media Info
General
Unique ID : 304187209986951441645546798725728883829 (0xE4D8535D3B3AF37361F91BEF6A48D475)
Complete name : [ReinForce] Ookami Kakushi - 01 (BDRip 1920x1080 x264 FLAC).mkv
Format : Matroska
Format version : Version 4 / Version 2
File size : 2.06 GiB
Duration : 24 min 12 s
Overall bit rate mode : Variable
Overall bit rate : 12.2 Mb/s
Encoded date : UTC 2018-08-19 21:44:30
Writing application : mkvmerge v23.0.0 ('The Bride Said No') 64-bit
Writing library : libebml v1.3.5 + libmatroska v1.4.8

Video
ID : 1
Format : AVC
Format/Info : Advanced Video Codec
Format profile : High@L4
Format settings : CABAC / 4 Ref Frames
Format settings, CABAC : Yes
Format settings, ReFrames : 4 frames
Codec ID : V_MPEG4/ISO/AVC
Duration : 24 min 12 s
Bit rate : 10.7 Mb/s
Width : 1 920 pixels
Height : 1 080 pixels
Display aspect ratio : 16:9
Frame rate mode : Constant
Frame rate : 23.976 (24000/1001) FPS
Color space : YUV
Chroma subsampling : 4:2:0
Bit depth : 8 bits
Scan type : Progressive
Bits/(Pixel*Frame) : 0.216
Stream size : 1.82 GiB (88%)
Writing library : x264 core 152
Encoding settings : opencl=1 / cabac=1 / ref=4 / deblock=1:-2:-2 / analyse=0x3:0x113 / me=umh / subme=9 / psy=1 / psy_rd=0.70:0.00 / mixed_ref=0 / me_range=32 / chroma_me=1 / trellis=2 / 8x8dct=1 / cqm=0 / deadzone=21,11 / fast_pskip=1 / chroma_qp_offset=-2 / threads=8 / lookahead_threads=1 / sliced_threads=0 / nr=0 / decimate=1 / interlaced=0 / bluray_compat=0 / constrained_intra=0 / bframes=9 / b_pyramid=2 / b_adapt=2 / b_bias=0 / direct=3 / weightb=1 / open_gop=0 / weightp=2 / keyint=250 / keyint_min=23 / scenecut=40 / intra_refresh=0 / rc_lookahead=40 / rc=crf / mbtree=1 / crf=16.0 / qcomp=0.70 / qpmin=10 / qpmax=20 / qpstep=4 / ip_ratio=1.40 / aq=1:1.00
Default : Yes
Forced : No

Audio
ID : 2
Format : FLAC
Format/Info : Free Lossless Audio Codec
Codec ID : A_FLAC
Duration : 24 min 12 s
Bit rate mode : Variable
Bit rate : 1 468 kb/s
Channel(s) : 2 channels
Channel positions : Front: L R
Sampling rate : 48.0 kHz
Frame rate : 10.417 FPS (4608 SPF)
Bit depth : 24 bits
Stream size : 254 MiB (12%)
Writing library : Lavf57.83.100
Language : Japanese
Default : Yes
Forced : No
Скриншоты
 

Вложения

  • 132,8 KB Просмотры: 1
    Личеров 0
    Сидеров 0
    Файлов 49
    Объем 25,6 GB

Привет!

Мы группа людей которые решили помочь другим в решении их проблем, а так же пользователям с поиском самых свежих и качественных инфопродуктов. За 4 с небольшим месяца мы создали этот форум на который заходят ежедневно тысячи человек и посещаемость постоянно растёт. Мы создали панель лицензирования для защиты PHP скриптов от воровства и SEO панель для мониторинга наших сайтов и выбора верной стратегии их развития. Мы надеемся что то что мы создали пригодится Вам и возможно Вы поможете нам развиваться и совершенствоваться вместе с Вами.

Статистика форума

Темы
385.038
Сообщения
430.143
Пользователи
62.609
Новый пользователь
ТаСамая

Приложения форума для iOS и Android


У ркн там нет власти ;)
Приватные разговоры
Помощь Пользователи
    Вы не присоединились ни к одной комнате.