За последнюю неделю опубликовано 0 новых материалов.
Инструкция новичку Путеводитель по форуму Прокси для Telegram Показать подсказки , это бомба!

Скачать Украсть Бельмондо (2012) DVB от AND03AND бесплатно через торрент

  • Поучаствуй (в качестве покупателя) в любых пяти совместных покупках (кроме завершённых и "Моментальных") и получи группу "Новичок" навсегда -> ссылка на раздел
  • Получай до 480 рублей за каждого приглашенного пользователя!
    представляем Вам очередное расширение партнерской программы, подробности описаны тут -> ссылка
  • 90% материалов доступно к скачиванию после простой регистрации!
    Если же ты хочешь скачивать материалы без требования оставлять отзывы то получи группу "Новичок", 10 способов повышения описаны тут -> ссылка
  • К сожалению количество битых ссылок растет и мы уже не можем их оперативно восстанавливать поэтому просим помощи у каждого нашего пользователя.
    С сегодняшнего дня, за каждую восстановленную ссылку мы заплатим Вам.
    Подробнее тут -> ссылка
  • Перенесем твои заслуги с другого ресурса!
    Мы понимаем как сложно прокачивать аккаунты на форумах, вроде раскачал аккаунт, а тут появляется ресурс в 100 раз круче но тоже с системой прокачки и снова качать аккаунт...
    Предлагаем вам перенести Ваши заслуги на другом подобном ресурсе к нам.
    Подробности описаны тут -> ссылка
  • Вы можете получать по 2.5% с каждой покупки и продажи на маркете! Подробности в теме Партнёрская программа
Если Вы не хотите скачивать, Вы всегда можетепосмотретьонлайн, просто нажмите кнопку ниже :

Открыть плеер

Torrent_Bot

Торрент-Бот
Бот форума
4 Окт 2016
79
196
20
Информация о фильме
Название: Украсть Бельмондо
Год выхода: 2012
Жанр: комедия
Режиссер: Николай Князев
В ролях: Олег Нестеров, Анна Бондарева, Анатолий Кот, Андрей Добровольский, Александр Панкратов-Чёрный, Саша Вергун, Пётр Елфимов, Сергей Журавель, Евгений Ивкович, Владимир Мищанчук, Светлана Зеленковская, Анастасия Боброва, Геннадий Давыдько, Андрей Олиференко, Татьяна Гаркуша, Полина Стрельникова, Иван Трус

О фильме:
Киноверсия известного сериала.
У модного московского писателя в жизни наступает кризис: не ладятся взаимоотношения с девушкой, не пишется роман. Чтобы хоть как–то изменить ситуацию, герой решает уехать в Париж и там продолжить работу над книгой: вдохновляющая атмосфера французской столицы поможет литератору вновь обрести себя. Но после грандиозной попойки со своим издателем и агентом писатель вместо настоящего попадает в белорусский Париж — деревню на севере страны. Тут то и начинаются все его злоключения…

Доп. информация:
Cценарист: Константин Воробьёв
Оператор: Виктор Бондарович
Композитор: Виталий Артист
Художник: Павел Шаппо
Продюсер: Геннадий Давыдько
Производство: "Белтелерадиокомпания", "Беларусьфильм"
Премьера: 8 октября 2012 прокат киноверсии в Беларуси



Запись потока *.ts с наземного цифрового телеканала "СТВ" присутствуют анонсы наложенные сверху.

Благодарность: за помощь с недостающим материалом Bartimeyse и PavelDAS. Обоим большое спасибо!

Страна: Республика Беларусь
Студия: Беларусьфильм и Белтелерадиокомпания
Продолжительность: 01:43:46
Перевод: не требует

Файл
Кодек: AVC (H264)
Качество: DVB
Видео: MPEG4 Video (H264) 720(785)x576 (49:36) 25fps, 2 360 kb/s
Звук: MPEG Audio 48000Hz stereo 256kbps

Семпл

MediaInfo
General
ID : 1 (0x1)
Complete name : D:Новая земля 2Художественные фильмыУкрасть Бельмондо (2012)Украсть Бельмондо (2012).ts
Format : MPEG-TS
File size : 2.00 GiB
Duration : 1 h 43 min
Overall bit rate mode : Variable
Overall bit rate : 2 755 kb/s

Video
ID : 81 (0x51)
Menu ID : 80 (0x50)
Format : AVC
Format/Info : Advanced Video Codec
Format profile : [email protected]
Format settings, CABAC : Yes
Format settings, ReFrames : 4 frames
Format settings, GOP : M=4, N=24
Codec ID : 27
Duration : 1 h 43 min
Bit rate : 2 360 kb/s
Width : 720 pixels
Height : 576 pixels
Display aspect ratio : 4:3
Frame rate : 25.000 FPS
Standard : PAL
Color space : YUV
Chroma subsampling : 4:2:0
Bit depth : 8 bits
Scan type : MBAFF
Scan type, store method : Separated fields
Scan order : Top Field First
Bits/(Pixel*Frame) : 0.228
Stream size : 1.71 GiB (86%)
Color range : Limited
Color primaries : BT.601 PAL
Transfer characteristics : BT.470 System B, BT.470 System G
Matrix coefficients : BT.601

Audio
ID : 84 (0x54)
Menu ID : 80 (0x50)
Format : MPEG Audio
Format version : Version 1
Format profile : Layer 2
Codec ID : 3
Duration : 1 h 43 min
Bit rate mode : Constant
Bit rate : 256 kb/s
Channel(s) : 2 channels
Sampling rate : 48.0 kHz
Compression mode : Lossy
Stream size : 190 MiB (9%)
Language : English

Скриншот c названием фильма

Скриншоты
 

Вложения

  • 22,2 KB Просмотры: 0
    Личеров 0
    Сидеров 0
    Файлов 1
    Объем 2 GB

Привет!

Мы группа людей которые решили помочь другим в решении их проблем, а так же пользователям с поиском самых свежих и качественных инфопродуктов. За 4 с небольшим месяца мы создали этот форум на который заходят ежедневно тысячи человек и посещаемость постоянно растёт. Мы создали панель лицензирования для защиты PHP скриптов от воровства и SEO панель для мониторинга наших сайтов и выбора верной стратегии их развития. Мы надеемся что то что мы создали пригодится Вам и возможно Вы поможете нам развиваться и совершенствоваться вместе с Вами.

Статистика форума

Темы
414.370
Сообщения
475.396
Пользователи
96.561
Новый пользователь
starushka

Приложения форума для iOS и Android


У ркн там нет власти ;)
Приватные разговоры
Помощь Пользователи
    Вы не присоединились ни к одной комнате.