За последнюю неделю опубликовано 82 новых материалов.
Инструкция новичку Путеводитель по форуму Прокси для Telegram Показать подсказки , это бомба!

Скачать Удивительное путешествие доктора Дулиттла / Dolittle (2020) UHD BDRemux 2160p от селезень | 4K | HDR | Dolby Vision TV | Лицензия бесплатно через торрент

  • Поучаствуй (в качестве покупателя) в любых пяти совместных покупках (кроме завершённых и "Моментальных") и получи группу "Новичок" навсегда -> ссылка на раздел
  • Получай до 480 рублей за каждого приглашенного пользователя!
    представляем Вам очередное расширение партнерской программы, подробности описаны тут -> ссылка
  • 90% материалов доступно к скачиванию после простой регистрации!
    Если же ты хочешь скачивать материалы без требования оставлять отзывы то получи группу "Новичок", 10 способов повышения описаны тут -> ссылка
  • К сожалению количество битых ссылок растет и мы уже не можем их оперативно восстанавливать поэтому просим помощи у каждого нашего пользователя.
    С сегодняшнего дня, за каждую восстановленную ссылку мы заплатим Вам.
    Подробнее тут -> ссылка
  • Перенесем твои заслуги с другого ресурса!
    Мы понимаем как сложно прокачивать аккаунты на форумах, вроде раскачал аккаунт, а тут появляется ресурс в 100 раз круче но тоже с системой прокачки и снова качать аккаунт...
    Предлагаем вам перенести Ваши заслуги на другом подобном ресурсе к нам.
    Подробности описаны тут -> ссылка
  • Вы можете получать по 2.5% с каждой покупки и продажи на маркете! Подробности в теме Партнёрская программа
Если Вы не хотите скачивать, Вы всегда можетепосмотретьонлайн, просто нажмите кнопку ниже :

Открыть плеер

Torrent_Bot

Торрент-Бот
Бот форума
4 Окт 2016
104
152
20


Информация о фильме
Название: Удивительное путешествие доктора Дулиттла
Оригинальное название: Dolittle
Год выхода: 2020
Жанр: Приключения, комедия, семейный, фэнтези
Режиссер: Стивен Гейган
В ролях: Роберт Дауни мл., Антонио Бандерас, Майкл Шин, Джим Бродбент, Джесси Бакли, Гарри Коллетт, Эмма Томпсон, Рами Малек, Джон Сина, Кумэйл Нанджиани



О фильме: Семь лет назад доктор Дулиттл, прославленный врач-ветеринар, живущий в викторианской Англии, потерял свою жену. Теперь он ведет затворнический образ жизни, скрывшись за высокими стенами своего поместья. Экзотические животные из его коллекции - его единственная компания. Но когда неизвестная болезнь становится угрозой для жизни юной королевы, доктору Дулиттлу приходится покинуть свое убежище и отправиться в невероятное путешествие к мифическому острову. В поисках лекарства для королевы он вступит в схватку с беспощадными врагами, познакомится с диковинными существами и будет вынужден проявить недюжинное мужество и смекалку.

Страна: США, Китай, Великобритания
Студия: Perfect World Pictures, Team Downey, Universal Pictures
Продолжительность: 01:41:23
Перевод: Дублированный | Лицензия

Качество: BDRemux 2160p
Видео: 3840x2160 at 23.976 fps, MPEG-H HEVC HDR, Dolby Vision Video, 52949 kbps avg
Аудио: 48 kHz, AC3, 5.1, 640 Kbps | Лицензия | RUS |
Субтитры: Русские (Forced, отдельно)



MI
General
Complete name : D:Video222Dolittle.2020.BDREMUX.2160p.HDR.DV_TV.seleZenDolittle.2020.BDREMUX.2160p.HDR.DV_TV.seleZen.mp4
Format : MPEG-4
Format profile : Base Media / Version 2
Codec ID : mp42 (mp42/dby1/isom)
File size : 42.2 GiB
Duration : 1 h 41 min
Overall bit rate : 59.6 Mb/s
Encoded date : UTC 2020-05-20 17:39:02
Tagged date : UTC 2020-05-20 17:39:02

Video #1
ID : 1
Format : HEVC
Format/Info : High Efficiency Video Coding
Format profile : Main 10@L5.1@High
HDR format : SMPTE ST 2094 App 4, Version 1, HDR10+ Profile B compatible
Codec ID : hev1
Codec ID/Info : High Efficiency Video Coding
Duration : 1 h 41 min
Bit rate : 52.9 Mb/s
Width : 3 840 pixels
Height : 2 160 pixels
Display aspect ratio : 16:9
Frame rate mode : Constant
Frame rate : 23.976 (24000/1001) FPS
Color space : YUV
Chroma subsampling : 4:2:0 (Type 2)
Bit depth : 10 bits
Bits/(Pixel*Frame) : 0.266
Stream size : 37.5 GiB (89%)
Default : No
Encoded date : UTC 2020-05-20 17:39:02
Tagged date : UTC 2020-05-20 17:39:02
Color range : Limited
Color primaries : BT.2020
Transfer characteristics : PQ
Matrix coefficients : BT.2020 non-constant
Mastering display color pri : Display P3
Mastering display luminance : min: 0.0001 cd/m2, max: 1000 cd/m2
Maximum Content Light Level : 1000 cd/m2
Maximum Frame-Average Light : 258 cd/m2
Codec configuration box : hvcC

Video #2
ID : 2
Format : HEVC
Format/Info : High Efficiency Video Coding
Format profile : Main 10@L5.1@High
HDR format : Dolby Vision, Version 1.0, dvhe.07.06, EL+RPU, Blu-ray compatible / SMPTE ST 2086, HDR10 compatible
Codec ID : dvhe
Codec ID/Info : High Efficiency Video Coding with Dolby Vision
Duration : 1 h 41 min
Bit rate : 5 955 kb/s
Width : 1 920 pixels
Height : 1 080 pixels
Display aspect ratio : 16:9
Frame rate mode : Constant
Frame rate : 23.976 (24000/1001) FPS
Color space : YUV
Chroma subsampling : 4:2:0 (Type 2)
Bit depth : 10 bits
Bits/(Pixel*Frame) : 0.120
Stream size : 4.22 GiB (10%)
Default : No
Encoded date : UTC 2020-05-20 17:39:02
Tagged date : UTC 2020-05-20 17:39:02
Color range : Limited
Color primaries : BT.2020
Transfer characteristics : PQ
Matrix coefficients : BT.2020 non-constant
Mastering display color pri : Display P3
Mastering display luminance : min: 0.0001 cd/m2, max: 1000 cd/m2
Codec configuration box : hvcC+dvcC

Audio
ID : 3
Format : AC-3
Format/Info : Audio Coding 3
Commercial name : Dolby Digital
Codec ID : ac-3
Duration : 1 h 41 min
Bit rate mode : Constant
Bit rate : 640 kb/s
Channel(s) : 6 channels
Channel layout : L R C LFE Ls Rs
Sampling rate : 48.0 kHz
Frame rate : 31.250 FPS (1536 SPF)
Compression mode : Lossy
Stream size : 464 MiB (1%)
Language : Russian
Service kind : Complete Main
Default : No
Encoded date : UTC 2020-05-20 17:39:02
Tagged date : UTC 2020-05-20 17:39:02

Релиз от:

 

Вложения

  • 53,8 KB Просмотры: 0
    Личеров 0
    Сидеров 0
    Файлов 2
    Объем 42,2 GB

Привет!

Мы группа людей которые решили помочь другим в решении их проблем, а так же пользователям с поиском самых свежих и качественных инфопродуктов. За 4 с небольшим месяца мы создали этот форум на который заходят ежедневно тысячи человек и посещаемость постоянно растёт. Мы создали панель лицензирования для защиты PHP скриптов от воровства и SEO панель для мониторинга наших сайтов и выбора верной стратегии их развития. Мы надеемся что то что мы создали пригодится Вам и возможно Вы поможете нам развиваться и совершенствоваться вместе с Вами.

Статистика форума

Темы
404.536
Сообщения
461.420
Пользователи
80.056
Новый пользователь
Maximus97

Приложения форума для iOS и Android


У ркн там нет власти ;)
Приватные разговоры
Помощь Пользователи
    Вы не присоединились ни к одной комнате.