За последнюю неделю опубликовано 57 новых материалов.
Инструкция новичку Путеводитель по форуму Прокси для Telegram Показать подсказки , это бомба!

Скачать Удивительное путешествие доктора Дулиттла / Dolittle (2020) BDRip-AVC | Лицензия бесплатно через торрент

  • Поучаствуй (в качестве покупателя) в любых пяти совместных покупках (кроме завершённых и "Моментальных") и получи группу "Новичок" навсегда -> ссылка на раздел
  • Получай до 480 рублей за каждого приглашенного пользователя!
    представляем Вам очередное расширение партнерской программы, подробности описаны тут -> ссылка
  • 90% материалов доступно к скачиванию после простой регистрации!
    Если же ты хочешь скачивать материалы без требования оставлять отзывы то получи группу "Новичок", 10 способов повышения описаны тут -> ссылка
  • К сожалению количество битых ссылок растет и мы уже не можем их оперативно восстанавливать поэтому просим помощи у каждого нашего пользователя.
    С сегодняшнего дня, за каждую восстановленную ссылку мы заплатим Вам.
    Подробнее тут -> ссылка
  • Перенесем твои заслуги с другого ресурса!
    Мы понимаем как сложно прокачивать аккаунты на форумах, вроде раскачал аккаунт, а тут появляется ресурс в 100 раз круче но тоже с системой прокачки и снова качать аккаунт...
    Предлагаем вам перенести Ваши заслуги на другом подобном ресурсе к нам.
    Подробности описаны тут -> ссылка
  • Вы можете получать по 2.5% с каждой покупки и продажи на маркете! Подробности в теме Партнёрская программа
Если Вы не хотите скачивать, Вы всегда можетепосмотретьонлайн, просто нажмите кнопку ниже :

Открыть плеер

Torrent_Bot

Торрент-Бот
Бот форума
4 Окт 2016
85
173
20


«He's not just a people person»

Информация о фильме
Название: Удивительное путешествие доктора Дулиттла
Оригинальное название: Dolittle
Год выхода: 2020
Жанр: Фэнтези, комедия, приключения, семейный
Режиссер: Стивен Гейган
В ролях: Роберт Дауни мл., Антонио Бандерас, Майкл Шин, Джим Бродбент, Джесси Бакли, Гарри Коллетт, Эмма Томпсон, Рами Малек, Джон Сина, Кумэйл Нанджиани

О фильме:
Семь лет назад доктор Дулиттл, прославленный врач-ветеринар, живущий в викторианской Англии, потерял свою жену. Теперь он ведет затворнический образ жизни, скрывшись за высокими стенами своего поместья. Экзотические животные из его коллекции — его единственная компания.

Но когда неизвестная болезнь становится угрозой для жизни юной королевы, доктору Дулиттлу приходится покинуть свое убежище и отправиться в невероятное путешествие к мифическому острову. В поисках лекарства для королевы он вступит в схватку с беспощадными врагами, познакомится с диковинными существами и будет вынужден проявить недюжинное мужество и смекалку.



Страна: США, Китай, Великобритания
Студия: Perfect World (Beijing) Pictures Co., RK Films, Team Downey, Universal Pictures
Продолжительность: 01:41:23
Перевод:
• Профессиональный (полное дублирование) | Blu-ray EUR

Файл
Качество: BDRip-AVC
Исходник: Dolittle 2020 REMUX 1080p Blu-ray AVC Atmos DTS-HD MA 7 1-LEGi0N
Формат: MKV
Кодек: MPEG-4 AVC
Видео: 784x424 (1.85:1), 23,976 fps, MPEG-4 AVC ~ 1610 Kbps avg, 0.202 bit/pixel
Аудио: AC3, 48 kHz, 6 ch, ~448.00 kbps avg | русский | Blu-ray EUR
Субтитры: Русские (Forced, Full)


Инфо-файл
Общее
Уникальный идентификатор : 32573967323369816563285224722893032829 (0x1881849596F35A284B138CC6191ECD7D)
Полное имя : Dolittle.2020.Lic.BDRip.1.46Gb.x264.mkv
Формат : Matroska
Версия формата : Version 4
Размер файла : 1,46 Гбайт
Продолжительность : 1 ч. 41 м.
Общий поток : 2060 Кбит/сек
Название фильма : Удивительное путешествие доктора Дулиттла / Dolittle (2020)
Дата кодирования : UTC 2020-05-20 08:41:06
Программа кодирования : mkvmerge v46.0.0 ('No Deeper Escape') 64-bit
Библиотека кодирования : libebml v1.3.10 + libmatroska v1.5.2
Обложка : Yes
Attachments : cover.jpg

Видео
Идентификатор : 1
Формат : AVC
Формат/Информация : Advanced Video Codec
Профиль формата : [email protected]
Настройки формата : CABAC / 12 Ref Frames
Параметр CABAC формата : Да
Параметр RefFrames формата : 12 кадров
Идентификатор кодека : V_MPEG4/ISO/AVC
Продолжительность : 1 ч. 41 м.
Битрейт : 1610 Кбит/сек
Ширина : 784 пикселя
Высота : 424 пикселя
Соотношение сторон : 1,85:1
Режим частоты кадров : Постоянный
Частота кадров : 23,976 кадра/сек
Цветовое пространство : YUV
Субдискретизация насыщенности : 4:2:0
Битовая глубина : 8 бит
Тип развёртки : Прогрессивная
Бит/(Пиксели*Кадры) : 0.202
Размер потока : 1,14 Гбайт (78%)
Заголовок : #stillet
Библиотека кодирования : x264 core 152 r2851bm ba24899
Настройки программы : cabac=1 / ref=12 / deblock=1:-3:-3 / analyse=0x3:0x113 / me=umh / subme=11 / psy=1 / psy_rd=1.00:0.15 / mixed_ref=1 / me_range=32 / chroma_me=1 / trellis=2 / 8x8dct=1 / cqm=0 / deadzone=21,11 / fast_pskip=0 / chroma_qp_offset=-3 / threads=8 / lookahead_threads=3 / sliced_threads=0 / nr=0 / decimate=0 / interlaced=0 / bluray_compat=0 / constrained_intra=0 / bframes=10 / b_pyramid=2 / b_adapt=2 / b_bias=0 / direct=3 / weightb=1 / open_gop=0 / weightp=2 / keyint=240 / keyint_min=23 / scenecut=40 / intra_refresh=0 / rc=2pass / mbtree=0 / bitrate=1610 / ratetol=1.0 / qcomp=0.60 / qpmin=0 / qpmax=69 / qpstep=4 / cplxblur=20.0 / qblur=0.5 / ip_ratio=1.40 / pb_ratio=1.30 / aq=1:1.00
Язык : English
Default : Да
Forced : Нет

Аудио
Идентификатор : 2
Формат : AC-3
Формат/Информация : Audio Coding 3
Коммерческое название : Dolby Digital
Идентификатор кодека : A_AC3
Продолжительность : 1 ч. 41 м.
Вид битрейта : Постоянный
Битрейт : 448 Кбит/сек
Каналы : 6 каналов
ChannelLayout : L R C LFE Ls Rs
Частота : 48,0 КГц
Частота кадров : 31,250 кадров/сек (1536 SPF)
Метод сжатия : С потерями
Размер потока : 325 Мбайт (22%)
Заголовок : Blu-ray EUR
Язык : Russian
Default : Да
Forced : Да

Текст #1
Идентификатор : 3
Формат : UTF-8
Идентификатор кодека : S_TEXT/UTF8
Идентификатор кодека/Информация : UTF-8 Plain Text
Продолжительность : 3 м. 40 с.
Битрейт : 113 бит/сек
ElementCount : 62
Размер потока : 3,06 Кбайт (0%)
Заголовок : Forced
Язык : Russian
Default : Да
Forced : Да

Текст #2
Идентификатор : 4
Формат : UTF-8
Идентификатор кодека : S_TEXT/UTF8
Идентификатор кодека/Информация : UTF-8 Plain Text
Продолжительность : 1 ч. 32 м.
Битрейт : 97 бит/сек
ElementCount : 1393
Размер потока : 66,0 Кбайт (0%)
Заголовок : Full
Язык : Russian
Default : Нет
Forced : Нет

Меню
00:00:00.000 : en:Chapter 01
00:04:22.595 : en:Chapter 02
00:09:36.826 : en:Chapter 03
00:14:31.245 : en:Chapter 04
00:18:37.324 : en:Chapter 05
00:20:57.798 : en:Chapter 06
00:23:02.172 : en:Chapter 07
00:29:30.226 : en:Chapter 08
00:35:58.156 : en:Chapter 09
00:39:08.471 : en:Chapter 10
00:45:47.745 : en:Chapter 11
00:48:28.906 : en:Chapter 12
00:53:06.933 : en:Chapter 13
00:59:13.466 : en:Chapter 14
01:04:55.141 : en:Chapter 15
01:11:16.772 : en:Chapter 16
01:17:05.996 : en:Chapter 17
01:23:36.011 : en:Chapter 18
01:30:02.063 : en:Chapter 19
01:32:58.364 : en:Chapter 20
Скриншоты






 

Вложения

  • 15,5 KB Просмотры: 0
    Личеров 0
    Сидеров 0
    Файлов 1
    Объем 1,5 GB

Привет!

Мы группа людей которые решили помочь другим в решении их проблем, а так же пользователям с поиском самых свежих и качественных инфопродуктов. За 4 с небольшим месяца мы создали этот форум на который заходят ежедневно тысячи человек и посещаемость постоянно растёт. Мы создали панель лицензирования для защиты PHP скриптов от воровства и SEO панель для мониторинга наших сайтов и выбора верной стратегии их развития. Мы надеемся что то что мы создали пригодится Вам и возможно Вы поможете нам развиваться и совершенствоваться вместе с Вами.

Статистика форума

Темы
411.701
Сообщения
470.417
Пользователи
90.710
Новый пользователь
carllance

Приложения форума для iOS и Android


У ркн там нет власти ;)
Приватные разговоры
Помощь Пользователи
    Вы не присоединились ни к одной комнате.