За последнюю неделю опубликовано 71 новых материалов.
Инструкция новичку Путеводитель по форуму Прокси для Telegram Показать подсказки , это бомба!

Скачать Удар головой / Coup De Tete (1979) BDRip 1080p | D, P бесплатно через торрент

  • Поучаствуй (в качестве покупателя) в любых пяти совместных покупках (кроме завершённых и "Моментальных") и получи группу "Новичок" навсегда -> ссылка на раздел
  • Получай до 480 рублей за каждого приглашенного пользователя!
    представляем Вам очередное расширение партнерской программы, подробности описаны тут -> ссылка
  • 90% материалов доступно к скачиванию после простой регистрации!
    Если же ты хочешь скачивать материалы без требования оставлять отзывы то получи группу "Новичок", 10 способов повышения описаны тут -> ссылка
  • К сожалению количество битых ссылок растет и мы уже не можем их оперативно восстанавливать поэтому просим помощи у каждого нашего пользователя.
    С сегодняшнего дня, за каждую восстановленную ссылку мы заплатим Вам.
    Подробнее тут -> ссылка
  • Перенесем твои заслуги с другого ресурса!
    Мы понимаем как сложно прокачивать аккаунты на форумах, вроде раскачал аккаунт, а тут появляется ресурс в 100 раз круче но тоже с системой прокачки и снова качать аккаунт...
    Предлагаем вам перенести Ваши заслуги на другом подобном ресурсе к нам.
    Подробности описаны тут -> ссылка
  • Вы можете получать по 2.5% с каждой покупки и продажи на маркете! Подробности в теме Партнёрская программа
Если Вы не хотите скачивать, Вы всегда можетепосмотретьонлайн, просто нажмите кнопку ниже :

Открыть плеер

Torrent_Bot

Торрент-Бот
Бот форума
4 Окт 2016
123
108
20


Название: Удар головой
Оригинальное название: Coup De Tête
Год выпуска: 1979
Страна: Франция
Жанр: Драма, комедия
Продолжительность: 01:28:42

Перевод: Профессиональный (дублированный), Профессиональный (многоголосый закадровый)

Режиссер: Жан-Жак Анно

В ролях: Патрик Деваэр, Дороти Жемма, Морис Барье, Робер Дальбан, Марио Давид, Юбер Дешам, Дора Долл, Франсуа Дирек, Патрик Флёрсем, Мишель Фортен, Жак Франц, Жерар Эрнандес, Френс Дуньяк, Коринн Маршан, Поль Ле Персон, Мишель Омон, Клод ЛеГро, Жан Буиз, Бернар-Пьер Доннадье, Жаклин Дойен, Паскаль Бенезек, Жанин Дарси, Жан-Поль Мюэль, Франсин Руссель, Софи Сам, Франсуа Вио, Жак Монне, Жан-Пьер Леклерк, Франсуа Жермен, Жан-Мишель Киндт...

Роли дублировали: Алексей Сафонов, Валерий Рыжаков, Наталья Гвоздикова, Олег Мокшанцев, Ольга Громова

Описание: Сатирический и язвительный "Удар головой" с удивительным Патриком Деваэром в главной роли - история злоключений талантливого футболиста Франсуа Перрена, выгнанного из заводской команды и уволенного с завода, любовные похождения которого обернулись для него тюрьмой, веселила еще зрителей советского проката. Пройдя через множество недоразумений, Франсуа выручает свою команду и становится героем.



Файл
Кодек: x264
Качество: BDRip 1080p
Видео: MPEG4 Video (H264), 1792x1080, 24fps, 11.5 Mbps
Аудио: Русский, Dolby AC3, 48000 Hz, 2ch, 192 kbps - Дубляж, Киностудия им. М. Горького
Аудио: Русский, Dolby AC3, 48000 Hz, 2ch, 192 kbps - Многоголосый
Аудио: Французский, Dolby AC3, 48000 Hz, 2ch, 192 kbps

MediaInfo:
General
Unique ID : 226553551369659699523312563190920702434 (0xAA70A079D502EEA6B517B6485FDCE9E2)
Complete name : C:0000DVDRip1979 Удар головой1979 Удар головой.mkv
Format : Matroska
Format version : Version 4
File size : 7.48 GiB
Duration : 1 h 28 min
Overall bit rate : 12.1 Mb/s
Movie name : 1979 Удар головой/likko
Encoded date : UTC 2020-01-09 17:41:16
Writing application : mkvmerge v8.3.0 ('Over the Horizon') 64bit
Writing library : libebml v1.3.1 + libmatroska v1.4.2

Video
ID : 1
Format : AVC
Format/Info : Advanced Video Codec
Format profile : High@L4.1
Format settings : CABAC / 4 Ref Frames
Format settings, CABAC : Yes
Format settings, Reference : 4 frames
Codec ID : V_MPEG4/ISO/AVC
Duration : 1 h 28 min
Bit rate : 11.5 Mb/s
Width : 1 792 pixels
Height : 1 080 pixels
Display aspect ratio : 5:3
Frame rate mode : Constant
Frame rate : 24.000 FPS
Color space : YUV
Chroma subsampling : 4:2:0
Bit depth : 8 bits
Scan type : Progressive
Bits/(Pixel*Frame) : 0.248
Stream size : 7.12 GiB (95%)
Title : 1979 Удар головой
Writing library : x264 core 148 r2638 7599210
Encoding settings : cabac=1 / ref=4 / deblock=1:-1:-1 / analyse=0x3:0x133 / me=umh / subme=11 / psy=1 / psy_rd=1.00:0.15 / mixed_ref=1 / me_range=48 / chroma_me=1 / trellis=2 / 8x8dct=1 / cqm=0 / deadzone=21,11 / fast_pskip=0 / chroma_qp_offset=-3 / threads=18 / lookahead_threads=4 / sliced_threads=0 / nr=0 / decimate=1 / interlaced=0 / bluray_compat=0 / constrained_intra=0 / bframes=10 / b_pyramid=2 / b_adapt=2 / b_bias=0 / direct=3 / weightb=1 / open_gop=0 / weightp=2 / keyint=250 / keyint_min=23 / scenecut=40 / intra_refresh=0 / rc=2pass / mbtree=0 / bitrate=11500 / ratetol=1.0 / qcomp=0.60 / qpmin=0 / qpmax=69 / qpstep=4 / cplxblur=20.0 / qblur=0.5 / ip_ratio=1.40 / pb_ratio=1.30 / aq=2:1.00
Language : French
Default : Yes
Forced : No

Audio #1
ID : 2
Format : AC-3
Format/Info : Audio Coding 3
Commercial name : Dolby Digital
Codec ID : A_AC3
Duration : 1 h 28 min
Bit rate mode : Constant
Bit rate : 192 kb/s
Channel(s) : 2 channels
Channel layout : L R
Sampling rate : 48.0 kHz
Frame rate : 31.250 FPS (1536 SPF)
Compression mode : Lossy
Stream size : 122 MiB (2%)
Title : Дубляж
Language : Russian
Service kind : Complete Main
Default : Yes
Forced : No

Audio #2
ID : 3
Format : AC-3
Format/Info : Audio Coding 3
Commercial name : Dolby Digital
Codec ID : A_AC3
Duration : 1 h 28 min
Bit rate mode : Constant
Bit rate : 192 kb/s
Channel(s) : 2 channels
Channel layout : L R
Sampling rate : 48.0 kHz
Frame rate : 31.250 FPS (1536 SPF)
Compression mode : Lossy
Stream size : 122 MiB (2%)
Title : Многоголосый
Language : Russian
Service kind : Complete Main
Default : No
Forced : No

Audio #3
ID : 4
Format : AC-3
Format/Info : Audio Coding 3
Commercial name : Dolby Digital
Codec ID : A_AC3
Duration : 1 h 28 min
Bit rate mode : Constant
Bit rate : 192 kb/s
Channel(s) : 2 channels
Channel layout : L R
Sampling rate : 48.0 kHz
Frame rate : 31.250 FPS (1536 SPF)
Compression mode : Lossy
Stream size : 122 MiB (2%)
Language : French
Service kind : Complete Main
Default : No
Forced : No

Menu
00:00:00.000 : en:Chapter 01
00:07:23.583 : en:Chapter 02
00:14:53.208 : en:Chapter 03
00:21:47.166 : en:Chapter 04
00:28:25.166 : en:Chapter 05
00:38:31.791 : en:Chapter 06
00:43:38.708 : en:Chapter 07
00:49:46.166 : en:Chapter 08
00:56:18.416 : en:Chapter 09
01:03:22.458 : en:Chapter 10
01:10:46.666 : en:Chapter 11
01:20:39.416 : en:Chapter 12
Скриншоты:

 

Вложения

  • 38,3 KB Просмотры: 0
    Личеров 0
    Сидеров 0
    Файлов 1
    Объем 7,5 GB

Привет!

Мы группа людей которые решили помочь другим в решении их проблем, а так же пользователям с поиском самых свежих и качественных инфопродуктов. За 4 с небольшим месяца мы создали этот форум на который заходят ежедневно тысячи человек и посещаемость постоянно растёт. Мы создали панель лицензирования для защиты PHP скриптов от воровства и SEO панель для мониторинга наших сайтов и выбора верной стратегии их развития. Мы надеемся что то что мы создали пригодится Вам и возможно Вы поможете нам развиваться и совершенствоваться вместе с Вами.

Статистика форума

Темы
384.693
Сообщения
428.024
Пользователи
59.281
Новый пользователь
heap_void

Приложения форума для iOS и Android


У ркн там нет власти ;)
Приватные разговоры
Помощь Пользователи
    Вы не присоединились ни к одной комнате.