За последнюю неделю опубликовано 65 новых материалов.
Инструкция новичку Путеводитель по форуму Прокси для Telegram Показать подсказки , это бомба!

Скачать Удача Логана / Logan Lucky (2017) BDRip-AVC | D | Лицензия бесплатно через торрент

  • Поучаствуй (в качестве покупателя) в любых пяти совместных покупках (кроме завершённых и "Моментальных") и получи группу "Новичок" навсегда -> ссылка на раздел
  • Получай до 480 рублей за каждого приглашенного пользователя!
    представляем Вам очередное расширение партнерской программы, подробности описаны тут -> ссылка
  • 90% материалов доступно к скачиванию после простой регистрации!
    Если же ты хочешь скачивать материалы без требования оставлять отзывы то получи группу "Новичок", 10 способов повышения описаны тут -> ссылка
  • К сожалению количество битых ссылок растет и мы уже не можем их оперативно восстанавливать поэтому просим помощи у каждого нашего пользователя.
    С сегодняшнего дня, за каждую восстановленную ссылку мы заплатим Вам.
    Подробнее тут -> ссылка
  • Перенесем твои заслуги с другого ресурса!
    Мы понимаем как сложно прокачивать аккаунты на форумах, вроде раскачал аккаунт, а тут появляется ресурс в 100 раз круче но тоже с системой прокачки и снова качать аккаунт...
    Предлагаем вам перенести Ваши заслуги на другом подобном ресурсе к нам.
    Подробности описаны тут -> ссылка
  • Вы можете получать по 2.5% с каждой покупки и продажи на маркете! Подробности в теме Партнёрская программа
Если Вы не хотите скачивать, Вы всегда можетепосмотретьонлайн, просто нажмите кнопку ниже :

Открыть плеер

Torrent_Bot

Торрент-Бот
Бот форума
4 Окт 2016
92
160
20



Информация о фильме
Название: Удача Логана
Оригинальное название: Logan Lucky
Год выпуска: 2017
Жанр: Комедия, криминал
Режиссер: Стивен Содерберг
В ролях: Дэниэл Крэйг, Ченнинг Татум, Адам Драйвер, Сет МакФарлейн, Себастьян Стэн, Кэти Холмс, Хилари Суэнк, Райли Кио, Фаррах Маккензи, Джим О Хейр

О фильме:
Уволили с работы? Подготовь самое дерзкое ограбление в истории! Джимми Логан молниеносно подбирает команду «специалистов», способных на такую аферу, и надеется выйти сухим из воды. Будь как Логан!



Страна: США
Студия: Free Association, Trans-Radial Pictures
Продолжительность: 01:59:03
Перевод: Дублированный | Лицензия BD RUS
Субтитры: Русские (forced, Full)

Файл
Формат: Matroska
Качество: BDRip-AVC [BDRemux 1080p] (holoff)
Видео: 1104x462 at 23.976 fps, [email protected], ~2495 kbps, 0.204 bpp
Аудио: AC3, 6 ch, ~448 kbps - | Русский | -
Формат субтитров: softsub (SRT)

M/I
x264 [info]: frame I:1126 Avg QP:14.56 size: 91712
x264 [info]: frame P:37016 Avg QP:16.45 size: 27656
x264 [info]: frame B:133123 Avg QP:17.70 size: 8266
x264 [info]: consecutive B-frames: 2.1% 2.3% 8.5% 22.4% 16.9% 32.4% 5.8% 3.4% 2.4% 1.3% 2.8%

General
Complete name : D:КИНОУдача Логана.(2017).BDRip-AVC.U.S.mkv
Format : Matroska
Format version : Version 4
File size : 2.45 GiB
Duration : 1 h 59 min
Overall bit rate : 2 945 kb/s
Movie name : Удача Логана.(2017).BDRip-AVC / Удача Логана / Logan Lucky (2017) [U.S.]
Encoded date : UTC 2020-09-02 07:16:47
Writing application : mkvmerge v49.0.0 ('Sick Of Losing Soulmates') 64-bit
Writing library : libebml v1.4.0 + libmatroska v1.6.1
Cover : Yes
Attachments : Cover.jpg

Video
ID : 1
Format : AVC
Format/Info : Advanced Video Codec
Format profile : [email protected]
Format settings : CABAC / 11 Ref Frames
Format settings, CABAC : Yes
Format settings, Reference : 11 frames
Codec ID : V_MPEG4/ISO/AVC
Duration : 1 h 59 min
Bit rate : 2 495 kb/s
Width : 1 104 pixels
Height : 462 pixels
Display aspect ratio : 2.40:1
Frame rate mode : Constant
Frame rate : 23.976 (24000/1001) FPS
Color space : YUV
Chroma subsampling : 4:2:0
Bit depth : 8 bits
Scan type : Progressive
Bits/(Pixel*Frame) : 0.204
Stream size : 2.07 GiB (85%)
Writing library : x264 core 160 r3000 33f9e14
Encoding settings : cabac=1 / ref=11 / deblock=1:-3:-2 / analyse=0x3:0x133 / me=umh / subme=11 / psy=1 / psy_rd=1.00:0.05 / mixed_ref=1 / me_range=32 / chroma_me=1 / trellis=2 / 8x8dct=1 / cqm=0 / deadzone=21,11 / fast_pskip=0 / chroma_qp_offset=-3 / threads=12 / lookahead_threads=3 / sliced_threads=0 / nr=0 / decimate=1 / interlaced=0 / bluray_compat=0 / constrained_intra=0 / bframes=10 / b_pyramid=2 / b_adapt=2 / b_bias=0 / direct=3 / weightb=1 / open_gop=0 / weightp=2 / keyint=250 / keyint_min=23 / scenecut=40 / intra_refresh=0 / rc_lookahead=60 / rc=crf / mbtree=0 / crf=17.3 / qcomp=0.60 / qpmin=0 / qpmax=69 / qpstep=4 / vbv_maxrate=50000 / vbv_bufsize=62500 / crf_max=0.0 / nal_hrd=none / filler=0 / ip_ratio=1.40 / pb_ratio=1.30 / aq=3:0.90
Language : English
Default : Yes
Forced : No

Audio
ID : 2
Format : AC-3
Format/Info : Audio Coding 3
Commercial name : Dolby Digital
Codec ID : A_AC3
Duration : 1 h 59 min
Bit rate mode : Constant
Bit rate : 448 kb/s
Channel(s) : 6 channels
Channel layout : L R C LFE Ls Rs
Sampling rate : 48.0 kHz
Frame rate : 31.250 FPS (1536 SPF)
Compression mode : Lossy
Stream size : 381 MiB (15%)
Title : DUB
Language : Russian
Service kind : Complete Main
Default : Yes
Forced : No

Text #1
ID : 3
Format : UTF-8
Codec ID : S_TEXT/UTF8
Codec ID/Info : UTF-8 Plain Text
Duration : 1 h 50 min
Bit rate : 3 b/s
Count of elements : 62
Stream size : 3.13 KiB (0%)
Title : Forced
Language : Russian
Default : Yes
Forced : No

Text #2
ID : 4
Format : UTF-8
Codec ID : S_TEXT/UTF8
Codec ID/Info : UTF-8 Plain Text
Duration : 1 h 55 min
Bit rate : 100 b/s
Count of elements : 1680
Stream size : 85.1 KiB (0%)
Title : Full Blu-Ray
Language : Russian
Default : No
Forced : No

Menu
00:00:00.000 : :Chapter 01
00:05:41.799 : :Chapter 02
00:07:33.202 : :Chapter 03
00:10:40.931 : :Chapter 04
00:16:24.024 : :Chapter 05
00:21:23.282 : :Chapter 06
00:29:08.747 : :Chapter 07
00:36:03.703 : :Chapter 08
00:41:49.423 : :Chapter 09
00:47:11.078 : :Chapter 10
00:50:08.880 : :Chapter 11
00:54:40.527 : :Chapter 12
00:57:27.152 : :Chapter 13
00:59:16.469 : :Chapter 14
01:04:37.290 : :Chapter 15
01:07:27.877 : :Chapter 16
01:12:12.995 : :Chapter 17
01:17:50.248 : :Chapter 18
01:19:20.422 : :Chapter 19
01:24:02.912 : :Chapter 20
01:28:33.099 : :Chapter 21
01:32:41.514 : :Chapter 22
01:42:27.432 : :Chapter 23
01:46:07.652 : :Chapter 24
01:50:50.935 : :Chapter 25
01:54:55.263 : :Chapter 26
Скриншоты
 

Вложения

  • 99,3 KB Просмотры: 0
    Личеров 0
    Сидеров 0
    Файлов 1
    Объем 2,4 GB

Привет!

Мы группа людей которые решили помочь другим в решении их проблем, а так же пользователям с поиском самых свежих и качественных инфопродуктов. За 4 с небольшим месяца мы создали этот форум на который заходят ежедневно тысячи человек и посещаемость постоянно растёт. Мы создали панель лицензирования для защиты PHP скриптов от воровства и SEO панель для мониторинга наших сайтов и выбора верной стратегии их развития. Мы надеемся что то что мы создали пригодится Вам и возможно Вы поможете нам развиваться и совершенствоваться вместе с Вами.

Статистика форума

Темы
406.658
Сообщения
465.103
Пользователи
84.688
Новый пользователь
Knight59136

Приложения форума для iOS и Android


У ркн там нет власти ;)
Приватные разговоры
Помощь Пользователи
    Вы не присоединились ни к одной комнате.