За последнюю неделю опубликовано 57 новых материалов.
Инструкция новичку Путеводитель по форуму Прокси для Telegram Показать подсказки , это бомба!

Скачать Ученик чародея / The Sorcerer's Apprentice (2010) BDRip-HEVC 1080p | D | Лицензия бесплатно через торрент

  • Поучаствуй (в качестве покупателя) в любых пяти совместных покупках (кроме завершённых и "Моментальных") и получи группу "Новичок" навсегда -> ссылка на раздел
  • Получай до 480 рублей за каждого приглашенного пользователя!
    представляем Вам очередное расширение партнерской программы, подробности описаны тут -> ссылка
  • 90% материалов доступно к скачиванию после простой регистрации!
    Если же ты хочешь скачивать материалы без требования оставлять отзывы то получи группу "Новичок", 10 способов повышения описаны тут -> ссылка
  • К сожалению количество битых ссылок растет и мы уже не можем их оперативно восстанавливать поэтому просим помощи у каждого нашего пользователя.
    С сегодняшнего дня, за каждую восстановленную ссылку мы заплатим Вам.
    Подробнее тут -> ссылка
  • Перенесем твои заслуги с другого ресурса!
    Мы понимаем как сложно прокачивать аккаунты на форумах, вроде раскачал аккаунт, а тут появляется ресурс в 100 раз круче но тоже с системой прокачки и снова качать аккаунт...
    Предлагаем вам перенести Ваши заслуги на другом подобном ресурсе к нам.
    Подробности описаны тут -> ссылка
  • Вы можете получать по 2.5% с каждой покупки и продажи на маркете! Подробности в теме Партнёрская программа
Если Вы не хотите скачивать, Вы всегда можетепосмотретьонлайн, просто нажмите кнопку ниже :

Открыть плеер

Torrent_Bot

Торрент-Бот
Бот форума
4 Окт 2016
92
163
20



Название: Ученик чародея
Оригинальное название: The Sorcerer's Apprentice
Год выхода: 2010
Жанр: фэнтези, боевик, семейный, приключения
Режиссер: Джон Тёртлтауб
В ролях: Николас Кейдж, Джей Барушель, Альфред Молина, Тереза Палмер, Тоби Кеббелл, Омар Бенсон Миллер, Моника Беллуччи, Элис Крайдж, Джейк Черри, Джеймс А. Стефенс

О фильме: Дейв — студент колледжа, который пытается сдать экзамены по физике и назначить свидание девушке своей мечты Беки. Внезапно в его жизнь врывается эксцентричный Бальтазар Блейк. Выясняется, что Бальтазар — современный волшебник, который долгое время искал человека равного или превосходящего по силе его самого.



Страна: США
Студия: Walt Disney Pictures
Продолжительность: 01:49:02
Перевод: Дублированный

Качество: BDRip-HEVC 1080p
Кодек: HEVC (x265)
Видео: 1920x800 (2,40:1), 8760 кбит/сек, 0.238 бит/(Пиксели*Кадры), 23.976 (24000/1001) кадр/сек, HEVC ([email protected]@High) 10 бит
Звук:
Аудио1: AC3, 6 ch, 640 Kbps - русский Дублированный (Лицензия)
Аудио2: AC3, 6 ch, 640 Kbps - english Original
Субтитры: Русские полные (SRT), English full (SRT)
Навигация по главам: Есть

Mediainfo
x265 info: frame I: 659, Avg QP:17.73 kb/s: 19602.56
x265 info: frame P: 29924, Avg QP:19.57 kb/s: 15035.01
x265 info: frame B: 126291, Avg QP:21.42 kb/s: 7215.69
x265 info: Weighted P-Frames: Y:7.1% UV:6.1%
x265 info: Weighted B-Frames: Y:7.3% UV:5.8%
x265 info: consecutive B-frames: 6.2% 4.9% 6.4% 31.6% 11.3% 18.7% 6.0% 6.7% 2.6% 2.2% 1.0% 0.9% 0.6% 0.4% 0.4%
x265 info: encoded 156874 frames in 216093.46s (0.73 fps), 8759.28 kb/s, Avg QP:21.05

Формат : Matroska
Версия формата : Version 4
Размер файла : 7,65 Гбайт
Продолжительность : 1 ч. 49 м.
Общий поток : 10,0 Мбит/сек
Название фильма : Ученик чародея
Описание : Дейв — студент колледжа, который пытается сдать экзамены по физике и назначить свидание девушке своей мечты Беки. Внезапно в его жизнь врывается эксцентричный Бальтазар Блейк. Выясняется, что Бальтазар — современный волшебник, который долгое время искал человека равного или превосходящего по силе его самого.
Дата кодирования : UTC 2019-07-02 13:16:22
Программа кодирования : mkvmerge v35.0.0 ('All The Love In The World') 64-bit
Библиотека кодирования : libebml v1.3.9 + libmatroska v1.5.2 / Lavf57.71.100
Примечание : Rip by OldGamer
Attachments : poster.jpg / backdrop.jpg
ACTORS : Nicolas Cage, Jay Baruchel, Monica Bellucci, Alfred Molina, Teresa Palmer, Ethan Peck, Alice Krige, Toby Kebbell, Omar Benson Miller, Jake Cherry, Peyton List, James A. Stephens, Gregory Woo, Ian Alda
COUNTRY : United States
DATE : 2010-07-13
DIRECTOR : Jon Turteltaub
ENCODING_INFO : MATROSKA,WEBM > MKV / H264 > X265 CRF 19.5 Very Slow / DTS > AC3 CBR 864kbps / AC3 > COPY Безопасное
GENRE : Фэнтези, Приключения, Боевик, Комедия, Драма
HD_VIDEO : 1
ITUNEXTC : mpaa|PG|200|
Язык : und
MEDIA_TYPE : 9
ORIGINAL_TITLE : The Sorcerer's Apprentice
PUBLISHER : Junction Entertainment, Walt Disney Pictures, Jerry Bruckheimer Films, Saturn Films, Broken Road Productions
RATING : 5.90
WRITER : Doug Miro, Carlo Bernard

Видео
Идентификатор : 1
Формат : HEVC
Формат/Информация : High Efficiency Video Coding
Профиль формата : Main [email protected]@High
Идентификатор кодека : V_MPEGH/ISO/HEVC
Продолжительность : 1 ч. 49 м.
Битрейт : 8760 Кбит/сек
Ширина : 1920 пикселей
Высота : 800 пикселей
Соотношение сторон : 2,40:1
Режим частоты кадров : Постоянный
Частота кадров : 23,976 (24000/1001) кадра/сек
Цветовое пространство : YUV
Субдискретизация насыщенности : 4:2:0
Битовая глубина : 10 бит
Бит/(Пиксели*Кадры) : 0.238
Размер потока : 6,67 Гбайт (87%)
Библиотека кодирования : x265 2.9+9-f74003e88622:[Mac OS X][clang 10.0.0][64 bit] 10bit
Настройки программы : cpuid=1111039 / frame-threads=14 / wpp / no-pmode / no-pme / no-psnr / no-ssim / log-level=3 / input-csp=1 / input-res=1920x800 / interlace=0 / total-frames=0 / level-idc=41 / high-tier=1 / uhd-bd=0 / ref=5 / allow-non-conformance / no-repeat-headers / annexb / no-aud / no-hrd / info / hash=0 / no-temporal-layers / open-gop / min-keyint=23 / keyint=240 / gop-lookahead=0 / bframes=14 / b-adapt=2 / b-pyramid / bframe-bias=0 / rc-lookahead=60 / lookahead-slices=5 / scenecut=40 / radl=0 / no-intra-refresh / ctu=64 / min-cu-size=8 / rect / amp / max-tu-size=32 / tu-inter-depth=4 / tu-intra-depth=4 / limit-tu=1 / rdoq-level=2 / dynamic-rd=0.00 / no-ssim-rd / signhide / no-tskip / nr-intra=0 / nr-inter=0 / no-constrained-intra / no-strong-intra-smoothing / max-merge=5 / limit-refs=2 / no-limit-modes / me=3 / subme=7 / merange=57 / temporal-mvp / weightp / weightb / no-analyze-src-pics / deblock=-3:-3 / no-sao / no-sao-non-deblock / rd=6 / no-early-skip / rskip / no-fast-intra / no-tskip-fast / no-cu-lossless / no-b-intra / no-splitrd-skip / rdpenalty=0 / psy-rd=2.00 / psy-rdoq=1.00 / no-rd-refine / no-lossless / cbqpoffs=0 / crqpoffs=0 / rc=crf / crf=19.5 / qcomp=0.63 / qpstep=4 / stats-write=0 / stats-read=0 / vbv-maxrate=50000 / vbv-bufsize=50000 / vbv-init=0.9 / crf-max=0.0 / crf-min=0.0 / ipratio=1.40 / pbratio=1.30 / aq-mode=3 / aq-strength=0.80 / no-cutree / zone-count=1 / zones: / start-frame=147560 / end-frame=156859 / qp=35 / no-strict-cbr / qg-size=32 / no-rc-grain / qpmax=69 / qpmin=0 / no-const-vbv / sar=1 / overscan=0 / videoformat=5 / range=0 / colorprim=1 / transfer=1 / colormatrix=1 / chromaloc=0 / display-window=0 / max-cll=0,0 / min-luma=0 / max-luma=1023 / log2-max-poc-lsb=8 / vui-timing-info / vui-hrd-info / slices=1 / no-opt-qp-pps / no-opt-ref-list-length-pps / no-multi-pass-opt-rps / scenecut-bias=0.00 / no-opt-cu-delta-qp / aq-motion / no-hdr / no-hdr-opt / no-dhdr10-opt / no-idr-recovery-sei / analysis-reuse-level=5 / scale-factor=0 / refine-intra=0 / refine-inter=0 / refine-mv=0 / no-limit-sao / ctu-info=0 / no-lowpass-dct / refine-mv-type=0 / copy-pic=1 / max-ausize-factor=1.0 / no-dynamic-refine / no-single-sei
Язык : English
Default : Да
Forced : Нет
Цветовой диапазон : Limited
Основные цвета : BT.709
Характеристики трансфера : BT.709
Коэффициенты матрицы : BT.709

Аудио #1
Идентификатор : 2
Формат : AC-3
Формат/Информация : Audio Coding 3
Коммерческое название : Dolby Digital
Идентификатор кодека : A_AC3
Продолжительность : 1 ч. 49 м.
Вид битрейта : Постоянный
Битрейт : 640 Кбит/сек
Каналы : 6 каналов
Channel layout : L R C LFE Ls Rs
Частота : 48,0 КГц
Частота кадров : 31,250 кадров/сек (1536 SPF)
Битовая глубина : 16 бит
Метод сжатия : С потерями
Размер потока : 499 Мбайт (6%)
Заголовок : Дублированный
Язык : Russian
ServiceKind/ : Complete Main
Default : Да
Forced : Нет

Аудио #2
Идентификатор : 3
Формат : AC-3
Формат/Информация : Audio Coding 3
Коммерческое название : Dolby Digital
Идентификатор кодека : A_AC3
Продолжительность : 1 ч. 49 м.
Вид битрейта : Постоянный
Битрейт : 640 Кбит/сек
Каналы : 6 каналов
Channel layout : L R C LFE Ls Rs
Частота : 48,0 КГц
Частота кадров : 31,250 кадров/сек (1536 SPF)
Битовая глубина : 16 бит
Метод сжатия : С потерями
Размер потока : 499 Мбайт (6%)
Заголовок : Original
Язык : English
ServiceKind/ : Complete Main
Default : Нет
Forced : Нет

Текст #1
Идентификатор : 4
Формат : UTF-8
Идентификатор кодека : S_TEXT/UTF8
Идентификатор кодека/Информация : UTF-8 Plain Text
Продолжительность : 1 ч. 41 м.
Битрейт : 77 бит/сек
ElementCount : 1176
Размер потока : 58,1 Кбайт (0%)
Заголовок : v1
Язык : Russian
Default : Нет
Forced : Нет

Текст #2
Идентификатор : 5
Формат : UTF-8
Идентификатор кодека : S_TEXT/UTF8
Идентификатор кодека/Информация : UTF-8 Plain Text
Продолжительность : 1 ч. 41 м.
Битрейт : 78 бит/сек
ElementCount : 1174
Размер потока : 58,1 Кбайт (0%)
Заголовок : v2
Язык : Russian
Default : Нет
Forced : Нет

Текст #3
Идентификатор : 6
Формат : UTF-8
Идентификатор кодека : S_TEXT/UTF8
Идентификатор кодека/Информация : UTF-8 Plain Text
Продолжительность : 1 ч. 41 м.
Битрейт : 86 бит/сек
ElementCount : 1165
Размер потока : 64,7 Кбайт (0%)
Заголовок : v3
Язык : Russian
Default : Нет
Forced : Нет

Текст #4
Идентификатор : 7
Формат : UTF-8
Идентификатор кодека : S_TEXT/UTF8
Идентификатор кодека/Информация : UTF-8 Plain Text
Продолжительность : 1 ч. 41 м.
Битрейт : 77 бит/сек
ElementCount : 1176
Размер потока : 58,1 Кбайт (0%)
Заголовок : v4
Язык : Russian
Default : Нет
Forced : Нет

Текст #5
Идентификатор : 8
Формат : UTF-8
Идентификатор кодека : S_TEXT/UTF8
Идентификатор кодека/Информация : UTF-8 Plain Text
Продолжительность : 1 ч. 41 м.
Битрейт : 82 бит/сек
ElementCount : 1277
Размер потока : 61,5 Кбайт (0%)
Заголовок : v5
Язык : Russian
Default : Нет
Forced : Нет

Текст #6
Идентификатор : 9
Формат : UTF-8
Идентификатор кодека : S_TEXT/UTF8
Идентификатор кодека/Информация : UTF-8 Plain Text
Продолжительность : 1 ч. 42 м.
Битрейт : 52 бит/сек
ElementCount : 1283
Размер потока : 39,2 Кбайт (0%)
Заголовок : v1
Язык : English
Default : Нет
Forced : Нет

Текст #7
Идентификатор : 10
Формат : UTF-8
Идентификатор кодека : S_TEXT/UTF8
Идентификатор кодека/Информация : UTF-8 Plain Text
Продолжительность : 1 ч. 38 м.
Битрейт : 61 бит/сек
ElementCount : 1381
Размер потока : 44,2 Кбайт (0%)
Заголовок : v2
Язык : English
Default : Нет
Forced : Нет

Меню
00:00:00.000 : :Chapter 01
00:04:11.167 : :Chapter 02
00:14:54.518 : :Chapter 03
00:20:58.715 : :Chapter 04
00:25:27.984 : :Chapter 05
00:31:09.325 : :Chapter 06
00:37:08.893 : :Chapter 07
00:42:25.793 : :Chapter 08
00:49:11.239 : :Chapter 09
00:53:41.301 : :Chapter 10
00:57:56.139 : :Chapter 11
01:01:53.167 : :Chapter 12
01:07:04.270 : :Chapter 13
01:12:41.315 : :Chapter 14
01:17:24.848 : :Chapter 15
01:21:33.972 : :Chapter 16
01:25:44.806 : :Chapter 17
01:28:31.264 : :Chapter 18
01:34:04.722 : :Chapter 19
01:39:01.685 : :Chapter 20
01:42:38.819 : :Chapter 21
Скриншоты


Автор: OldGamer
 

Вложения

  • 20,2 KB Просмотры: 1
    Личеров 0
    Сидеров 0
    Файлов 1
    Объем 7,7 GB

Привет!

Мы группа людей которые решили помочь другим в решении их проблем, а так же пользователям с поиском самых свежих и качественных инфопродуктов. За 4 с небольшим месяца мы создали этот форум на который заходят ежедневно тысячи человек и посещаемость постоянно растёт. Мы создали панель лицензирования для защиты PHP скриптов от воровства и SEO панель для мониторинга наших сайтов и выбора верной стратегии их развития. Мы надеемся что то что мы создали пригодится Вам и возможно Вы поможете нам развиваться и совершенствоваться вместе с Вами.

Статистика форума

Темы
406.699
Сообщения
465.158
Пользователи
84.798
Новый пользователь
Mag07mag

Приложения форума для iOS и Android


У ркн там нет власти ;)
Приватные разговоры
Помощь Пользователи
    Вы не присоединились ни к одной комнате.