За последнюю неделю опубликовано 33 новых материалов.
Инструкция новичку Путеводитель по форуму Прокси для Telegram Показать подсказки , это бомба!

Скачать Убить няню / Babysitter's Nightmare (2018) WEB-DLRip 720p | L бесплатно через торрент

  • Поучаствуй (в качестве покупателя) в любых пяти совместных покупках (кроме завершённых и "Моментальных") и получи группу "Новичок" навсегда -> ссылка на раздел
  • Получай до 480 рублей за каждого приглашенного пользователя!
    представляем Вам очередное расширение партнерской программы, подробности описаны тут -> ссылка
  • 90% материалов доступно к скачиванию после простой регистрации!
    Если же ты хочешь скачивать материалы без требования оставлять отзывы то получи группу "Новичок", 10 способов повышения описаны тут -> ссылка
  • К сожалению количество битых ссылок растет и мы уже не можем их оперативно восстанавливать поэтому просим помощи у каждого нашего пользователя.
    С сегодняшнего дня, за каждую восстановленную ссылку мы заплатим Вам.
    Подробнее тут -> ссылка
  • Перенесем твои заслуги с другого ресурса!
    Мы понимаем как сложно прокачивать аккаунты на форумах, вроде раскачал аккаунт, а тут появляется ресурс в 100 раз круче но тоже с системой прокачки и снова качать аккаунт...
    Предлагаем вам перенести Ваши заслуги на другом подобном ресурсе к нам.
    Подробности описаны тут -> ссылка
  • Вы можете получать по 2.5% с каждой покупки и продажи на маркете! Подробности в теме Партнёрская программа
Если Вы не хотите скачивать, Вы всегда можетепосмотретьонлайн, просто нажмите кнопку ниже :

Открыть плеер

Torrent_Bot

Торрент-Бот
Бот форума
4 Окт 2016
81
189
20



Информация о фильме
Название: Убить няню
Оригинальное название: Babysitter's Nightmare
Год выхода: 2018
Жанр: триллер
Режиссер: Джейк Хелгрен
В ролях: Шаника Ноулз, Мэттью Хиш, Бриттани Андервуд, Рейган Пастернак, Джет Юргенсмейер, Марк Гроссман, Шон Уэйлен, Кейтлин Тервер, Нэнси Ла Скала, Эрианн Цукер

О фильме:
Когда детскую сиделку Дафни Харт увольняют из больницы из-за несчастного случая, ей приходится согласиться на работу няней в доме богатого доктора в пригороде и приглядывать за её сыном, страдающим диабетом. Вскоре в пригороде убивают другую няню, и Дафни начинает подозревать, что с этим местом что-то не так.




Страна: США
Продолжительность: 01:26:26
Перевод: Любительский многоголосый - Синема УС

Файл
Кодек: MPEG-4 AVC
Качество: WEB-DL 720p
Видео: MPEG-4 AVC, 3106 Кбит/сек, 1280x720
Звук:
Pусский: AC3, 2 ch, 192 Кбит/сек
Aнглийский: E-AC3, 2 ch, 224 Кбит/сек

Субтитры: английские (вшитые отключаемые)



МедиаИнфо
General
Unique ID : 139971880734796980639275812880332876193 (0x694D9A88ABC8B32C1003899D4FD3E9A1)
Complete name : G:ФільмиKill the Babysitter (2018) WEB-DL 720p.mkv
Format : Matroska
Format version : Version 4
File size : 2.13 GiB
Duration : 1 h 26 min
Overall bit rate : 3 525 kb/s
Encoded date : UTC 2020-07-31 02:51:33
Writing application : mkvmerge v48.0.0 ('Fortress Around Your Heart') 64-bit
Writing library : libebml v1.4.0 + libmatroska v1.6.0

Video
ID : 1
Format : AVC
Format/Info : Advanced Video Codec
Format profile : [email protected]
Format settings : CABAC / 3 Ref Frames
Format settings, CABAC : Yes
Format settings, Reference frames : 3 frames
Codec ID : V_MPEG4/ISO/AVC
Duration : 1 h 26 min
Bit rate : 3 106 kb/s
Width : 1 280 pixels
Height : 720 pixels
Display aspect ratio : 16:9
Frame rate mode : Constant
Frame rate : 23.976 (24000/1001) FPS
Color space : YUV
Chroma subsampling : 4:2:0
Bit depth : 8 bits
Scan type : Progressive
Bits/(Pixel*Frame) : 0.141
Stream size : 1.88 GiB (88%)
Title : USA (Ninth House, The)
Language : English
Default : Yes
Forced : No

Audio #1
ID : 2
Format : AC-3
Format/Info : Audio Coding 3
Commercial name : Dolby Digital
Codec ID : A_AC3
Duration : 1 h 26 min
Bit rate mode : Constant
Bit rate : 192 kb/s
Channel(s) : 2 channels
Channel layout : L R
Sampling rate : 48.0 kHz
Frame rate : 31.250 FPS (1536 SPF)
Compression mode : Lossy
Delay relative to video : -5 ms
Stream size : 119 MiB (5%)
Title : MVO (Cinema US)
Language : Russian
Service kind : Complete Main
Default : Yes
Forced : No

Audio #2
ID : 3
Format : E-AC-3
Format/Info : Enhanced AC-3
Commercial name : Dolby Digital Plus
Codec ID : A_EAC3
Duration : 1 h 26 min
Bit rate mode : Constant
Bit rate : 224 kb/s
Channel(s) : 2 channels
Channel layout : L R
Sampling rate : 48.0 kHz
Frame rate : 31.250 FPS (1536 SPF)
Compression mode : Lossy
Delay relative to video : -5 ms
Stream size : 138 MiB (6%)
Title : Original (English)
Language : English
Service kind : Complete Main
Default : No
Forced : No

Text #1
ID : 4
Format : UTF-8
Codec ID : S_TEXT/UTF8
Codec ID/Info : UTF-8 Plain Text
Duration : 1 h 26 min
Bit rate : 69 b/s
Count of elements : 1550
Stream size : 44.0 KiB (0%)
Title : SDH
Language : English
Default : Yes
Forced : No

Text #2
ID : 5
Format : UTF-8
Codec ID : S_TEXT/UTF8
Codec ID/Info : UTF-8 Plain Text
Duration : 1 h 25 min
Bit rate : 64 b/s
Count of elements : 1400
Stream size : 40.4 KiB (0%)
Language : English
Default : No
Forced : No
Скриншоты


 

Вложения

  • 11,6 KB Просмотры: 0
    Личеров 0
    Сидеров 0
    Файлов 1
    Объем 2,1 GB

Привет!

Мы группа людей которые решили помочь другим в решении их проблем, а так же пользователям с поиском самых свежих и качественных инфопродуктов. За 4 с небольшим месяца мы создали этот форум на который заходят ежедневно тысячи человек и посещаемость постоянно растёт. Мы создали панель лицензирования для защиты PHP скриптов от воровства и SEO панель для мониторинга наших сайтов и выбора верной стратегии их развития. Мы надеемся что то что мы создали пригодится Вам и возможно Вы поможете нам развиваться и совершенствоваться вместе с Вами.

Статистика форума

Темы
413.039
Сообщения
472.399
Пользователи
93.551
Новый пользователь
SvetlanaFUSS123

Приложения форума для iOS и Android


У ркн там нет власти ;)
Приватные разговоры
Помощь Пользователи
    Вы не присоединились ни к одной комнате.