За последнюю неделю опубликовано 59 новых материалов.
Инструкция новичку Путеводитель по форуму Прокси для Telegram Показать подсказки , это бомба!

Скачать Убить миссис Тингл / Teaching Mrs. Tingle (1999) BDRip 1080p | P бесплатно через торрент

  • Поучаствуй (в качестве покупателя) в любых пяти совместных покупках (кроме завершённых и "Моментальных") и получи группу "Новичок" навсегда -> ссылка на раздел
  • Получай до 480 рублей за каждого приглашенного пользователя!
    представляем Вам очередное расширение партнерской программы, подробности описаны тут -> ссылка
  • 90% материалов доступно к скачиванию после простой регистрации!
    Если же ты хочешь скачивать материалы без требования оставлять отзывы то получи группу "Новичок", 10 способов повышения описаны тут -> ссылка
  • К сожалению количество битых ссылок растет и мы уже не можем их оперативно восстанавливать поэтому просим помощи у каждого нашего пользователя.
    С сегодняшнего дня, за каждую восстановленную ссылку мы заплатим Вам.
    Подробнее тут -> ссылка
  • Перенесем твои заслуги с другого ресурса!
    Мы понимаем как сложно прокачивать аккаунты на форумах, вроде раскачал аккаунт, а тут появляется ресурс в 100 раз круче но тоже с системой прокачки и снова качать аккаунт...
    Предлагаем вам перенести Ваши заслуги на другом подобном ресурсе к нам.
    Подробности описаны тут -> ссылка
  • Вы можете получать по 2.5% с каждой покупки и продажи на маркете! Подробности в теме Партнёрская программа
Если Вы не хотите скачивать, Вы всегда можетепосмотретьонлайн, просто нажмите кнопку ниже :

Открыть плеер

Torrent_Bot

Торрент-Бот
Бот форума
4 Окт 2016
102
157
20



Информация о фильме
Название: Убить миссис Тингл
Оригинальное название: Teaching Mrs. Tingle
Год выхода: 1999
Жанр: триллер, драма, мелодрама, комедия
Режиссер: Кевин Уильямсон
В ролях: Кэти Холмс, Хелен Миррен, Бэрри Уотсон, Мариса Куглан

О фильме:
Всю свою жизнь Ли Энн Уотсон поступала правильно. Сейчас, заканчивая колледж, она мечтает об университете и должна стать лучшей выпускницей. Но на этом пути у нее оказывается одна преграда в лице миссис Тингл - преподавателя истории, которая ненавидит буквально всех. Когда все попытки Ли Энн исправить оценку терпят неудачу, она с друзьями решается на отчаянную игру. Никто из них не ожидал, что дальнейшее развитие событий не оставит им выбора, а последствия будут необратимы!




Страна: США
Студия: Miramax, Konrad Pictures, Interscope Communications
Продолжительность: 01:35:02
Перевод: профессиональный (многоголосый, закадровый) R5

Файл
Кодек: x.264
Качество: BDRip 1080p
Видео: 1920 x 1040 (1.85:1), 9102 kb/s, 24 fps
Звук:
Русский 48 kHz, AC3 5.1, 384 Kbps
Английский 48 kHz, DTS 5.1, 768 Kbps
Субтитры: Русские, английские
Семпл

MediaInfo
General
Unique ID : 223366549775476576602668634112273004589 (0xA80AD52A6E7F0F96A24747AC37E5B82D)
Complete name : C:tempTeaching.Mrs.Tingle.1999.1080p.bluray.rus.x264-axez.mkv
Format : Matroska
Format version : Version 4
File size : 6.81 GiB
Duration : 1 h 35 min
Overall bit rate : 10.3 Mb/s
Encoded date : UTC 2020-05-14 17:23:01
Writing application : mkvmerge v46.0.0 ('No Deeper Escape') 64-bit
Writing library : libebml v1.3.10 + libmatroska v1.5.2

Video
ID : 1
Format : AVC
Format/Info : Advanced Video Codec
Format profile : High@L4.1
Format settings : CABAC / 4 Ref Frames
Format settings, CABAC : Yes
Format settings, Reference frames : 4 frames
Codec ID : V_MPEG4/ISO/AVC
Duration : 1 h 35 min
Bit rate : 9 102 kb/s
Width : 1 920 pixels
Height : 1 040 pixels
Display aspect ratio : 1.85:1
Frame rate mode : Constant
Frame rate : 24.000 FPS
Color space : YUV
Chroma subsampling : 4:2:0
Bit depth : 8 bits
Scan type : Progressive
Bits/(Pixel*Frame) : 0.190
Stream size : 6.05 GiB (89%)
Writing library : x264 core 120 r2164 da19765
Encoding settings : cabac=1 / ref=4 / deblock=1:0:0 / analyse=0x3:0x113 / me=umh / subme=8 / psy=1 / psy_rd=1.00:0.00 / mixed_ref=1 / me_range=16 / chroma_me=1 / trellis=1 / 8x8dct=1 / cqm=0 / deadzone=21,11 / fast_pskip=1 / chroma_qp_offset=-2 / threads=12 / sliced_threads=0 / nr=0 / decimate=1 / interlaced=0 / bluray_compat=0 / constrained_intra=0 / bframes=3 / b_pyramid=2 / b_adapt=2 / b_bias=0 / direct=3 / weightb=1 / open_gop=0 / weightp=2 / keyint=240 / keyint_min=24 / scenecut=40 / intra_refresh=0 / rc_lookahead=50 / rc=2pass / mbtree=1 / bitrate=9102 / ratetol=1.0 / qcomp=0.60 / qpmin=0 / qpmax=69 / qpstep=4 / cplxblur=20.0 / qblur=0.5 / ip_ratio=1.40 / aq=1:1.00
Default : Yes
Forced : No

Audio #1
ID : 3
Format : AC-3
Format/Info : Audio Coding 3
Commercial name : Dolby Digital
Codec ID : A_AC3
Duration : 1 h 34 min
Bit rate mode : Constant
Bit rate : 384 kb/s
Channel(s) : 6 channels
Channel layout : L R C LFE Ls Rs
Sampling rate : 48.0 kHz
Frame rate : 31.250 FPS (1536 SPF)
Compression mode : Lossy
Delay relative to video : -83 ms
Stream size : 261 MiB (4%)
Title : ПМ
Language : Russian
Service kind : Complete Main
Default : Yes
Forced : Yes

Audio #2
ID : 5
Format : DTS
Format/Info : Digital Theater Systems
Codec ID : A_DTS
Duration : 1 h 35 min
Bit rate mode : Constant
Bit rate : 768 kb/s
Channel(s) : 6 channels
Channel layout : C L R Ls Rs LFE
Sampling rate : 48.0 kHz
Frame rate : 93.750 FPS (512 SPF)
Bit depth : 24 bits
Compression mode : Lossy
Delay relative to video : -83 ms
Stream size : 523 MiB (7%)
Title : Original
Language : English
Default : No
Forced : No

Text #1
ID : 2
Format : UTF-8
Codec ID : S_TEXT/UTF8
Codec ID/Info : UTF-8 Plain Text
Duration : 1 h 31 min
Bit rate : 57 b/s
Count of elements : 1123
Stream size : 38.4 KiB (0%)
Language : English
Default : No
Forced : No

Text #2
ID : 4
Format : UTF-8
Codec ID : S_TEXT/UTF8
Codec ID/Info : UTF-8 Plain Text
Duration : 1 h 30 min
Bit rate : 96 b/s
Count of elements : 941
Stream size : 63.6 KiB (0%)
Title : Sub
Language : Russian
Default : No
Forced : No

Menu
00:00:00.000 : en:00:00:00.000
00:06:19.167 : en:00:06:19.167
00:14:38.292 : en:00:14:38.292
00:19:56.375 : en:00:19:56.375
00:24:55.417 : en:00:24:55.417
00:30:50.875 : en:00:30:50.875
00:36:24.167 : en:00:36:24.167
00:43:58.250 : en:00:43:58.250
00:49:46.458 : en:00:49:46.458
00:57:04.292 : en:00:57:04.292
01:02:53.167 : en:01:02:53.167
01:08:49.417 : en:01:08:49.417
01:14:15.333 : en:01:14:15.333
01:19:25.792 : en:01:19:25.792
01:24:36.417 : en:01:24:36.417
Скриншоты

Релиз от: Scolgerquist
 

Вложения

  • 18 KB Просмотры: 0
    Личеров 0
    Сидеров 0
    Файлов 1
    Объем 6,8 GB

Привет!

Мы группа людей которые решили помочь другим в решении их проблем, а так же пользователям с поиском самых свежих и качественных инфопродуктов. За 4 с небольшим месяца мы создали этот форум на который заходят ежедневно тысячи человек и посещаемость постоянно растёт. Мы создали панель лицензирования для защиты PHP скриптов от воровства и SEO панель для мониторинга наших сайтов и выбора верной стратегии их развития. Мы надеемся что то что мы создали пригодится Вам и возможно Вы поможете нам развиваться и совершенствоваться вместе с Вами.

Статистика форума

Темы
405.486
Сообщения
462.610
Пользователи
80.703
Новый пользователь
dariaeka

Приложения форума для iOS и Android


У ркн там нет власти ;)
Приватные разговоры
Помощь Пользователи
    Вы не присоединились ни к одной комнате.