За последнюю неделю опубликовано 91 новых материалов.
Инструкция новичку Путеводитель по форуму Прокси для Telegram Показать подсказки , это бомба!

Скачать Убийца внутри меня / Killers Within (2018) WEB-DL 1080p | L2 бесплатно через торрент

  • Поучаствуй (в качестве покупателя) в любых пяти совместных покупках (кроме завершённых и "Моментальных") и получи группу "Новичок" навсегда -> ссылка на раздел
  • Получай до 480 рублей за каждого приглашенного пользователя!
    представляем Вам очередное расширение партнерской программы, подробности описаны тут -> ссылка
  • 90% материалов доступно к скачиванию после простой регистрации!
    Если же ты хочешь скачивать материалы без требования оставлять отзывы то получи группу "Новичок", 10 способов повышения описаны тут -> ссылка
  • К сожалению количество битых ссылок растет и мы уже не можем их оперативно восстанавливать поэтому просим помощи у каждого нашего пользователя.
    С сегодняшнего дня, за каждую восстановленную ссылку мы заплатим Вам.
    Подробнее тут -> ссылка
  • Перенесем твои заслуги с другого ресурса!
    Мы понимаем как сложно прокачивать аккаунты на форумах, вроде раскачал аккаунт, а тут появляется ресурс в 100 раз круче но тоже с системой прокачки и снова качать аккаунт...
    Предлагаем вам перенести Ваши заслуги на другом подобном ресурсе к нам.
    Подробности описаны тут -> ссылка
  • Вы можете получать по 2.5% с каждой покупки и продажи на маркете! Подробности в теме Партнёрская программа
Если Вы не хотите скачивать, Вы всегда можетепосмотретьонлайн, просто нажмите кнопку ниже :

Открыть плеер

Torrent_Bot

Торрент-Бот
Бот форума
4 Окт 2016
102
153
20



Информация о фильме
Название: Убийца внутри меня
Оригинальное название: Killers Within
Год выпуска: 2018
Жанр: Ужасы, триллер, криминал
Режиссер: Пол Буш, Брайан О'Нилл
В ролях: Сью Уолш, Джефф Дойл, Джонни Эллиотт, Эндрю Мюррей, Сэм Лукас Смит, Савир Лонг, Синед О'Риордан, Патрик Мерфи, Том Ноттен, Кормак Мелиа

О фильме: Офицер-полицейский Аманда Дойл вместе со своим бывшим мужем и тремя не особо надежными союзниками, принимает участие в отчаянной операции по вызволению сына из лап бандитов, захватив ради выкупа семью состоятельного банкира. Но семейка оказывается непростой.



Страна: Ирландия
Студия: Fever Kid Films, Millbrook Studios, Two Joker Films
Продолжительность: 01:39:52
Перевод: Любительский (двухголосый, закадровый) HiWayGrope

Файл
Формат: MKV
Качество: WEB-DL 1080p
Видео: MPEG-4 AVC, 7598 Кбит/с, 1920х800, 23.976 fps
Аудио#1: 48 kHz, AC3, 2.0, 192 Kbps | RUS | HiWayGrope
Аудио#2: 48 kHz, E-AC3, 5.1, 640 Kbps | ENG | Original
Субтитры: Английские

***Примечание: Без рекламы
***Релиз: mike7025

Инфо-файл
General
Unique ID : 250692574303697183076082822663981501944 (0xBC99A2318EF3A427ED8C4F8371080DF8)
Complete name : G:Killers.Within.2018.AMZN.WEB-DL.1080p.mkv
Format : Matroska
Format version : Version 4 / Version 2
File size : 5.88 GiB
Duration : 1 h 39 min
Overall bit rate : 8 432 kb/s
Encoded date : UTC 2019-07-02 16:40:33
Writing application : mkvmerge v20.0.0 ('I Am The Sun') 64-bit
Writing library : libebml v1.3.5 + libmatroska v1.4.8

Video
ID : 1
Format : AVC
Format/Info : Advanced Video Codec
Format profile : High@L4
Format settings : CABAC / 4 Ref Frames
Format settings, CABAC : Yes
Format settings, RefFrames : 4 frames
Codec ID : V_MPEG4/ISO/AVC
Duration : 1 h 39 min
Bit rate mode : Constant
Bit rate : 7 598 kb/s
Nominal bit rate : 10 000 kb/s
Width : 1 920 pixels
Height : 800 pixels
Display aspect ratio : 2.40:1
Frame rate mode : Constant
Frame rate : 23.976 (24000/1001) FPS
Color space : YUV
Chroma subsampling : 4:2:0
Bit depth : 8 bits
Scan type : Progressive
Bits/(Pixel*Frame) : 0.206
Stream size : 5.30 GiB (90%)
Language : English
Default : Yes
Forced : No
Color range : Limited
Color primaries : BT.709
Transfer characteristics : BT.709
Matrix coefficients : BT.709

Audio #1
ID : 2
Format : AC-3
Format/Info : Audio Coding 3
Codec ID : A_AC3
Duration : 1 h 39 min
Bit rate mode : Constant
Bit rate : 192 kb/s
Channel(s) : 2 channels
Channel positions : Front: L R
Sampling rate : 48.0 kHz
Frame rate : 31.250 FPS (1536 SPF)
Bit depth : 16 bits
Compression mode : Lossy
Stream size : 137 MiB (2%)
Title : DVO HiWayGrope
Language : Russian
Service kind : Complete Main
Default : Yes
Forced : No

Audio #2
ID : 3
Format : E-AC-3
Format/Info : Enhanced Audio Coding 3
Codec ID : A_EAC3
Duration : 1 h 39 min
Bit rate mode : Constant
Bit rate : 640 kb/s
Channel(s) : 6 channels
Channel positions : Front: L C R, Side: L R, LFE
Sampling rate : 48.0 kHz
Frame rate : 187.500 FPS (256 SPF)
Compression mode : Lossy
Stream size : 457 MiB (8%)
Language : English
Service kind : Complete Main
Default : No
Forced : No

Text
ID : 4
Format : UTF-8
Codec ID : S_TEXT/UTF8
Codec ID/Info : UTF-8 Plain Text
Duration : 1 h 36 min
Bit rate : 36 b/s
Count of elements : 967
Stream size : 25.8 KiB (0%)
Language : English
Default : No
Forced : No
Скриншоты
 

Вложения

  • 30,3 KB Просмотры: 1
    Личеров 0
    Сидеров 0
    Файлов 1
    Объем 5,9 GB

Привет!

Мы группа людей которые решили помочь другим в решении их проблем, а так же пользователям с поиском самых свежих и качественных инфопродуктов. За 4 с небольшим месяца мы создали этот форум на который заходят ежедневно тысячи человек и посещаемость постоянно растёт. Мы создали панель лицензирования для защиты PHP скриптов от воровства и SEO панель для мониторинга наших сайтов и выбора верной стратегии их развития. Мы надеемся что то что мы создали пригодится Вам и возможно Вы поможете нам развиваться и совершенствоваться вместе с Вами.

Статистика форума

Темы
404.621
Сообщения
461.575
Пользователи
80.428
Новый пользователь
usmanka2008

Приложения форума для iOS и Android


У ркн там нет власти ;)
Приватные разговоры
Помощь Пользователи
    Вы не присоединились ни к одной комнате.