За последнюю неделю опубликовано 23 новых материалов.
Инструкция новичку Путеводитель по форуму Прокси для Telegram Показать подсказки , это бомба!

Скачать Убийца: Дилогия / Sicario: Dilogy (2015-2018) BDRip-AVC | D, A бесплатно через торрент

  • Поучаствуй (в качестве покупателя) в любых пяти совместных покупках (кроме завершённых и "Моментальных") и получи группу "Новичок" навсегда -> ссылка на раздел
  • Получай до 480 рублей за каждого приглашенного пользователя!
    представляем Вам очередное расширение партнерской программы, подробности описаны тут -> ссылка
  • 90% материалов доступно к скачиванию после простой регистрации!
    Если же ты хочешь скачивать материалы без требования оставлять отзывы то получи группу "Новичок", 10 способов повышения описаны тут -> ссылка
  • К сожалению количество битых ссылок растет и мы уже не можем их оперативно восстанавливать поэтому просим помощи у каждого нашего пользователя.
    С сегодняшнего дня, за каждую восстановленную ссылку мы заплатим Вам.
    Подробнее тут -> ссылка
  • Перенесем твои заслуги с другого ресурса!
    Мы понимаем как сложно прокачивать аккаунты на форумах, вроде раскачал аккаунт, а тут появляется ресурс в 100 раз круче но тоже с системой прокачки и снова качать аккаунт...
    Предлагаем вам перенести Ваши заслуги на другом подобном ресурсе к нам.
    Подробности описаны тут -> ссылка
  • Вы можете получать по 2.5% с каждой покупки и продажи на маркете! Подробности в теме Партнёрская программа
Если Вы не хотите скачивать, Вы всегда можетепосмотретьонлайн, просто нажмите кнопку ниже :

Открыть плеер

Torrent_Bot

Торрент-Бот
Бот форума
4 Окт 2016
122
116
20


Убийца / Sicario (2015)
Информация о фильме
Название: Убийца
Оригинальное название: Sicario
Год выхода: 2015
Жанр: Боевик, триллер, драма, криминал, детектив
Режиссер: Дени Вильнёв
В ролях: Эмили Блант, Бенисио Дель Торо, Джош Бролин, Виктор Гарбер, Джон Бернтал, Дэниэл Калуя, Джеффри Донован, Рауль Трухильо, Хулио Седильо, Хэнк Роджерсон, Бернардо Галлегос, Максимилиано Эрнандес, Кевин Уиггинс, Эдгар Арреола, Ким Нив, Хесус Неварес-Кастилло, Дилан Кенин, Джон Трехо, Марти Линдси, Алекс Найт

О фильме:
Безлюдные пустоши, по которым проходит граница между Мексикой и США, — это территория без правил, поле битвы между мексиканскими наркокартелями и американскими спецслужбами. Агент ФБР Кейт Мэйсер, которая работает в приграничных районах, старается придерживаться собственных идеалов, хотя и начинает ощущать, что исход войны с наркотрафиком складывается не в пользу служителей закона.
Однажды ей предоставляется шанс принять участие в работе элитного подразделения по борьбе с наркотиками, возглавляемого агентом Мэттом Грейвером. Самый загадочный участник команды — местный консультант, человек без имени, привычек, и, кажется, без прошлого. Его истинное лицо откроется только в ходе рискованной операции, во время которой Кейт будет вынуждена поступиться собственными принципами, чтобы остаться в живых.



Страна: США
Студия: Black Label Media, Lionsgate, Thunder Road
Продолжительность: 02:01:20
Перевод: Дублированный (iTunes) + Авторский, одноголосый, закадровый (Дмитрий Есарев - без цензуры) + Оригинал

Файл
Кодек: x.264
Качество: BDRip-AVC | исх. BDRemux 1080p
Видео: h264 / 2170 kbps / 1040x432 / 23,976 fps
Аудио 1: 48 kHz / 6 ch / 384 kbps | iTunes
Аудио 2: 48 kHz / 6 ch / 384 kbps | Дмитрий Есарев
Аудио 3: 48 kHz / 6 ch / 384 kbps | Оригинал
Субтитры: Русские, Английские

Релиз от: Alukard14

log/MediaInfo
x264 [info]: frame I:1194 Avg QP:10.44 size: 84891
x264 [info]: frame P:34030 Avg QP:14.78 size: 25706
x264 [info]: frame B:139328 Avg QP:17.45 size: 7131
x264 [info]: consecutive B-frames: 1.7% 2.2% 6.4% 16.3% 15.9% 27.2% 9.6% 5.0% 4.0% 2.5% 3.1% 2.9% 3.3%
x264 [info]: mb I I16..4: 25.8% 43.8% 30.4%
x264 [info]: mb P I16..4: 1.6% 8.8% 1.4% P16..4: 27.3% 34.7% 18.0% 0.0% 0.0% skip: 8.1%
x264 [info]: mb B I16..4: 0.5% 0.7% 0.1% B16..8: 29.5% 23.6% 5.8% direct: 5.3% skip:34.5% L0:46.9% L1:41.4% BI:11.7%
x264 [info]: 8x8 transform intra:64.2% inter:37.6%
x264 [info]: direct mvs spatial:98.2% temporal:1.8%
x264 [info]: coded y,uvDC,uvAC intra: 78.9% 83.1% 77.4% inter: 21.5% 19.6% 14.2%
x264 [info]: i16 v,h,dc,p: 59% 8% 16% 17%
x264 [info]: i8 v,h,dc,ddl,ddr,vr,hd,vl,hu: 9% 11% 21% 8% 10% 10% 10% 10% 12%
x264 [info]: i4 v,h,dc,ddl,ddr,vr,hd,vl,hu: 9% 11% 19% 8% 11% 11% 11% 9% 11%
x264 [info]: i8c dc,h,v,p: 50% 25% 13% 11%
x264 [info]: Weighted P-Frames: Y:2.4% UV:0.9%
x264 [info]: ref P L0: 45.6% 7.0% 18.3% 7.0% 6.1% 4.0% 3.9% 2.2% 2.2% 1.6% 1.8% 0.2% 0.0%
x264 [info]: ref B L0: 63.1% 14.8% 7.6% 4.2% 3.1% 2.6% 2.0% 1.4% 0.9% 0.3%
x264 [info]: ref B L1: 89.8% 10.2%
x264 [info]: kb/s:2164.35
_______________________________________________________________


Общее
Уникальный идентификатор : 217078780067009660278809254911964255339 (0xA34FDA2F2ABD06598954B1EA2476946B)
Полное имя : E:TestSicario.2015..BDRip-AVC.by.Alukard14.mkv
Формат : Matroska
Версия формата : Version 2
Размер файла : 2,81 Гбайт
Продолжительность : 2 ч. 1 м.
Общий поток : 3319 Кбит/сек
Название фильма : Sicario (2015)
Дата кодирования : UTC 2020-01-20 20:13:08
Программа кодирования : mkvmerge v5.6.0 ('Kenya Kane') built on May 27 2012 16:44:04
Библиотека кодирования : libebml v1.2.3 + libmatroska v1.3.0
Обложка : Yes
Attachments : cover.jpg

Видео
Идентификатор : 1
Формат : AVC
Формат/Информация : Advanced Video Codec
Профиль формата : High@L4.1
Настройки формата : CABAC / 11 Ref Frames
Параметр CABAC формата : Да
Параметр RefFrames формата : 11 кадров
Идентификатор кодека : V_MPEG4/ISO/AVC
Продолжительность : 2 ч. 1 м.
Битрейт : 2170 Кбит/сек
Ширина : 1040 пикселей
Высота : 432 пикселя
Соотношение сторон : 2,40:1
Режим частоты кадров : Постоянный
Частота кадров : 23,976 кадра/сек
Цветовое пространство : YUV
Субдискретизация насыщенности : 4:2:0
Битовая глубина : 8 бит
Тип развёртки : Прогрессивная
Бит/(Пиксели*Кадры) : 0.201
Размер потока : 1,78 Гбайт (63%)
Заголовок : Sicario (2015)
Библиотека кодирования : x264 core 148 r2638 7599210
Настройки программы : cabac=1 / ref=11 / deblock=1:-2:-2 / analyse=0x3:0x113 / me=umh / subme=11 / psy=1 / psy_rd=1.00:0.05 / mixed_ref=1 / me_range=48 / chroma_me=1 / trellis=2 / 8x8dct=1 / cqm=0 / deadzone=21,11 / fast_pskip=0 / chroma_qp_offset=-3 / threads=9 / lookahead_threads=2 / sliced_threads=0 / nr=0 / decimate=0 / interlaced=0 / bluray_compat=0 / constrained_intra=0 / bframes=12 / b_pyramid=2 / b_adapt=2 / b_bias=0 / direct=3 / weightb=1 / open_gop=0 / weightp=2 / keyint=240 / keyint_min=24 / scenecut=40 / intra_refresh=0 / rc_lookahead=40 / rc=2pass / mbtree=0 / bitrate=2170 / ratetol=1.0 / qcomp=0.60 / qpmin=0 / qpmax=69 / qpstep=4 / cplxblur=20.0 / qblur=0.5 / vbv_maxrate=14000 / vbv_bufsize=14000 / nal_hrd=none / filler=0 / ip_ratio=1.40 / pb_ratio=1.30 / aq=1:1.00
Язык : English
Default : Да
Forced : Нет

Аудио #1
Идентификатор : 2
Формат : AC-3
Формат/Информация : Audio Coding 3
Коммерческое название : Dolby Digital
Идентификатор кодека : A_AC3
Продолжительность : 2 ч. 1 м.
Вид битрейта : Постоянный
Битрейт : 384 Кбит/сек
Каналы : 6 каналов
ChannelLayout : L R C LFE Ls Rs
Частота : 48,0 КГц
Частота кадров : 31,250 кадров/сек (1536 SPF)
Битовая глубина : 16 бит
Метод сжатия : С потерями
Размер потока : 333 Мбайт (12%)
Заголовок : Дубляж
Язык : Russian
Default : Да
Forced : Нет

Аудио #2
Идентификатор : 3
Формат : AC-3
Формат/Информация : Audio Coding 3
Коммерческое название : Dolby Digital
Идентификатор кодека : A_AC3
Продолжительность : 2 ч. 1 м.
Вид битрейта : Постоянный
Битрейт : 384 Кбит/сек
Каналы : 6 каналов
ChannelLayout : L R C LFE Ls Rs
Частота : 48,0 КГц
Частота кадров : 31,250 кадров/сек (1536 SPF)
Битовая глубина : 16 бит
Метод сжатия : С потерями
Размер потока : 333 Мбайт (12%)
Заголовок : Авторский, одноголосый (Дмитрий Есарев)
Язык : Russian
Default : Нет
Forced : Нет

Аудио #3
Идентификатор : 4
Формат : AC-3
Формат/Информация : Audio Coding 3
Коммерческое название : Dolby Digital
Идентификатор кодека : A_AC3
Продолжительность : 2 ч. 1 м.
Вид битрейта : Постоянный
Битрейт : 384 Кбит/сек
Каналы : 6 каналов
ChannelLayout : L R C LFE Ls Rs
Частота : 48,0 КГц
Частота кадров : 31,250 кадров/сек (1536 SPF)
Битовая глубина : 16 бит
Метод сжатия : С потерями
Размер потока : 333 Мбайт (12%)
Заголовок : Оригинал
Язык : English
Default : Нет
Forced : Нет

Текст #1
Идентификатор : 5
Формат : UTF-8
Идентификатор кодека : S_TEXT/UTF8
Идентификатор кодека/Информация : UTF-8 Plain Text
Заголовок : Forced
Язык : Russian
Default : Да
Forced : Нет

Текст #2
Идентификатор : 6
Формат : UTF-8
Идентификатор кодека : S_TEXT/UTF8
Идентификатор кодека/Информация : UTF-8 Plain Text
Заголовок : Full
Язык : Russian
Default : Нет
Forced : Нет

Текст #3
Идентификатор : 7
Формат : UTF-8
Идентификатор кодека : S_TEXT/UTF8
Идентификатор кодека/Информация : UTF-8 Plain Text
Заголовок : Full
Язык : English
Default : Нет
Forced : Нет

Меню
00:00:00.000 : en:Chapter 1
00:07:14.350 : en:Chapter 2
00:12:55.107 : en:Chapter 3
00:20:04.369 : en:Chapter 4
00:25:24.814 : en:Chapter 5
00:32:11.596 : en:Chapter 6
00:39:24.820 : en:Chapter 7
00:46:15.314 : en:Chapter 8
00:53:24.576 : en:Chapter 9
01:01:40.321 : en:Chapter 10
01:10:49.119 : en:Chapter 11
01:18:02.886 : en:Chapter 12
01:30:59.370 : en:Chapter 13
01:36:57.770 : en:Chapter 14
01:47:42.038 : en:Chapter 15
01:54:12.804 : en:Chapter 16
Скриншоты

Убийца 2: Против всех / Sicario: Day of the Soldado (2018)
Информация о фильме
Название: Убийца 2: Против всех
Оригинальное название: Sicario: Day of the Soldado
Год выхода: 2018
Жанр: Боевик, триллер, драма, криминал
Режиссер: Стефано Соллима
В ролях: Бенисио Дель Торо, Джош Бролин, Изабела Монер, Джеффри Донован, Кэтрин Кинер, Мануэль Рульфо, Мэттью Модайн, Шей Уигэм, Элиас Гарза, Ховард Фергюсон мл.

О фильме:
Обстановка на американо-мексиканской границе накаляется, когда наркокартели начинают переправлять в США террористов. Чтобы дать им отпор федеральный агент Мэтт Грейвер вынужден вновь объединиться с не самым надежным напарником — Алехандро.



Страна: США, Италия
Студия: Black Label Media,Rai Cinema,Thunder Road Pictures
Продолжительность: 02:02:24
Перевод: Дублированный (iTunes) + Авторский, одноголосый, закадровый (Дмитрий Есарев - без цензуры) + Оригинал

Файл
Кодек: x.264
Качество: BDRip-AVC | исх. BDRemux 1080p
Видео: h264 / 2740 kbps / 1056x440 / 23,976 fps
Аудио 1: 48 kHz / 6 ch / 384 kbps | iTunes
Аудио 2: 48 kHz / 6 ch / 384 kbps | Дмитрий Есарев
Аудио 3: 48 kHz / 6 ch / 384 kbps | Оригинал
Субтитры: Русские, Английские

Релиз от: Alukard14

log/MediaInfo
x264 [info]: frame I:1081 Avg QP:12.69 size: 92831
x264 [info]: frame P:38305 Avg QP:15.64 size: 30931
x264 [info]: frame B:136701 Avg QP:17.26 size: 8999
x264 [info]: consecutive B-frames: 1.9% 3.0% 6.6% 28.0% 16.0% 23.9% 6.7% 8.5% 2.0% 0.9% 0.8% 1.4% 0.3%
x264 [info]: mb I I16..4: 24.3% 44.4% 31.3%
x264 [info]: mb P I16..4: 1.5% 9.6% 1.8% P16..4: 27.5% 36.5% 19.8% 0.0% 0.0% skip: 3.2%
x264 [info]: mb B I16..4: 0.1% 0.9% 0.1% B16..8: 31.0% 24.6% 6.3% direct: 6.0% skip:30.9% L0:45.0% L1:41.1% BI:14.0%
x264 [info]: 8x8 transform intra:71.5% inter:40.4%
x264 [info]: direct mvs spatial:97.9% temporal:2.1%
x264 [info]: coded y,uvDC,uvAC intra: 95.0% 87.1% 77.2% inter: 28.5% 19.6% 11.8%
x264 [info]: i16 v,h,dc,p: 9% 7% 42% 42%
x264 [info]: i8 v,h,dc,ddl,ddr,vr,hd,vl,hu: 13% 11% 18% 8% 10% 9% 10% 9% 12%
x264 [info]: i4 v,h,dc,ddl,ddr,vr,hd,vl,hu: 16% 11% 7% 8% 13% 12% 12% 10% 12%
x264 [info]: i8c dc,h,v,p: 48% 24% 15% 13%
x264 [info]: Weighted P-Frames: Y:4.1% UV:1.4%
x264 [info]: ref P L0: 40.9% 9.4% 17.7% 6.8% 6.6% 4.6% 4.8% 2.4% 2.5% 1.9% 2.2% 0.3% 0.0%
x264 [info]: ref B L0: 65.0% 13.7% 6.7% 3.9% 2.8% 2.8% 2.2% 1.7% 0.8% 0.4%
x264 [info]: ref B L1: 92.1% 7.9%
x264 [info]: kb/s:2739.96
_______________________________________________________________


Общее
Уникальный идентификатор : 178050153296010748918310522712790837067 (0x85F33651A94AA696ACC8F2EC9CAEA74B)
Полное имя : E:TestSicario - Dilogy byAlukard14Sicario. Day.of.the.Soldado.2018.BDRip-AVC.by.Alukard14.mkv
Формат : Matroska
Версия формата : Version 2
Размер файла : 3,33 Гбайт
Продолжительность : 2 ч. 2 м.
Общий поток : 3894 Кбит/сек
Название фильма : Sicario: Day of the Soldado (2018)
Дата кодирования : UTC 2020-01-21 18:25:57
Программа кодирования : mkvmerge v5.6.0 ('Kenya Kane') built on May 27 2012 16:44:04
Библиотека кодирования : libebml v1.2.3 + libmatroska v1.3.0
Обложка : Yes
Attachments : cover.jpg

Видео
Идентификатор : 1
Формат : AVC
Формат/Информация : Advanced Video Codec
Профиль формата : High@L4.1
Настройки формата : CABAC / 11 Ref Frames
Параметр CABAC формата : Да
Параметр RefFrames формата : 11 кадров
Идентификатор кодека : V_MPEG4/ISO/AVC
Продолжительность : 2 ч. 2 м.
Битрейт : 2740 Кбит/сек
Ширина : 1056 пикселей
Высота : 440 пикселей
Соотношение сторон : 2,40:1
Режим частоты кадров : Постоянный
Частота кадров : 23,976 кадра/сек
Цветовое пространство : YUV
Субдискретизация насыщенности : 4:2:0
Битовая глубина : 8 бит
Тип развёртки : Прогрессивная
Бит/(Пиксели*Кадры) : 0.246
Размер потока : 2,28 Гбайт (68%)
Заголовок : Sicario: Day of the Soldado (2018)
Библиотека кодирования : x264 core 148 r2638 7599210
Настройки программы : cabac=1 / ref=11 / deblock=1:-2:-2 / analyse=0x3:0x113 / me=umh / subme=11 / psy=1 / psy_rd=1.00:0.12 / mixed_ref=1 / me_range=48 / chroma_me=1 / trellis=2 / 8x8dct=1 / cqm=0 / deadzone=21,11 / fast_pskip=0 / chroma_qp_offset=-3 / threads=9 / lookahead_threads=2 / sliced_threads=0 / nr=0 / decimate=0 / interlaced=0 / bluray_compat=0 / constrained_intra=0 / bframes=12 / b_pyramid=2 / b_adapt=2 / b_bias=0 / direct=3 / weightb=1 / open_gop=0 / weightp=2 / keyint=240 / keyint_min=24 / scenecut=40 / intra_refresh=0 / rc_lookahead=40 / rc=2pass / mbtree=0 / bitrate=2740 / ratetol=1.0 / qcomp=0.60 / qpmin=0 / qpmax=69 / qpstep=4 / cplxblur=20.0 / qblur=0.5 / vbv_maxrate=14000 / vbv_bufsize=14000 / nal_hrd=none / filler=0 / ip_ratio=1.40 / pb_ratio=1.30 / aq=1:1.00
Язык : English
Default : Да
Forced : Нет

Аудио #1
Идентификатор : 2
Формат : AC-3
Формат/Информация : Audio Coding 3
Коммерческое название : Dolby Digital
Идентификатор кодека : A_AC3
Продолжительность : 2 ч. 2 м.
Вид битрейта : Постоянный
Битрейт : 384 Кбит/сек
Каналы : 6 каналов
ChannelLayout : L R C LFE Ls Rs
Частота : 48,0 КГц
Частота кадров : 31,250 кадров/сек (1536 SPF)
Битовая глубина : 16 бит
Метод сжатия : С потерями
Размер потока : 336 Мбайт (10%)
Заголовок : Дубляж
Язык : Russian
Default : Да
Forced : Нет

Аудио #2
Идентификатор : 3
Формат : AC-3
Формат/Информация : Audio Coding 3
Коммерческое название : Dolby Digital
Идентификатор кодека : A_AC3
Продолжительность : 2 ч. 2 м.
Вид битрейта : Постоянный
Битрейт : 384 Кбит/сек
Каналы : 6 каналов
ChannelLayout : L R C LFE Ls Rs
Частота : 48,0 КГц
Частота кадров : 31,250 кадров/сек (1536 SPF)
Битовая глубина : 16 бит
Метод сжатия : С потерями
Размер потока : 336 Мбайт (10%)
Заголовок : Авторский, одноголосый (Дмитрий Есарев)
Язык : Russian
Default : Нет
Forced : Нет

Аудио #3
Идентификатор : 4
Формат : AC-3
Формат/Информация : Audio Coding 3
Коммерческое название : Dolby Digital
Идентификатор кодека : A_AC3
Продолжительность : 2 ч. 2 м.
Вид битрейта : Постоянный
Битрейт : 384 Кбит/сек
Каналы : 6 каналов
ChannelLayout : L R C LFE Ls Rs
Частота : 48,0 КГц
Частота кадров : 31,250 кадров/сек (1536 SPF)
Битовая глубина : 16 бит
Метод сжатия : С потерями
Размер потока : 336 Мбайт (10%)
Заголовок : Оригинал
Язык : English
Default : Нет
Forced : Нет

Текст #1
Идентификатор : 5
Формат : UTF-8
Идентификатор кодека : S_TEXT/UTF8
Идентификатор кодека/Информация : UTF-8 Plain Text
Заголовок : Forced
Язык : Russian
Default : Да
Forced : Нет

Текст #2
Идентификатор : 6
Формат : UTF-8
Идентификатор кодека : S_TEXT/UTF8
Идентификатор кодека/Информация : UTF-8 Plain Text
Заголовок : Full
Язык : Russian
Default : Нет
Forced : Нет

Текст #3
Идентификатор : 7
Формат : UTF-8
Идентификатор кодека : S_TEXT/UTF8
Идентификатор кодека/Информация : UTF-8 Plain Text
Заголовок : Full
Язык : English
Default : Нет
Forced : Нет
Скриншоты
 

Вложения

  • 16,5 KB Просмотры: 0
    Личеров 0
    Сидеров 0
    Файлов 2
    Объем 6,1 GB

Привет!

Мы группа людей которые решили помочь другим в решении их проблем, а так же пользователям с поиском самых свежих и качественных инфопродуктов. За 4 с небольшим месяца мы создали этот форум на который заходят ежедневно тысячи человек и посещаемость постоянно растёт. Мы создали панель лицензирования для защиты PHP скриптов от воровства и SEO панель для мониторинга наших сайтов и выбора верной стратегии их развития. Мы надеемся что то что мы создали пригодится Вам и возможно Вы поможете нам развиваться и совершенствоваться вместе с Вами.

Статистика форума

Темы
385.057
Сообщения
430.427
Пользователи
63.043
Новый пользователь
mmmkhkt

Приложения форума для iOS и Android


У ркн там нет власти ;)
Приватные разговоры
Помощь Пользователи
    Вы не присоединились ни к одной комнате.