За последнюю неделю опубликовано 0 новых материалов.
Инструкция новичку Путеводитель по форуму Прокси для Telegram Показать подсказки , это бомба!

Скачать Убежище страха / Asylum of Fear (2018) WEBRip 720p | GreenРай Studio бесплатно через торрент

  • Поучаствуй (в качестве покупателя) в любых пяти совместных покупках (кроме завершённых и "Моментальных") и получи группу "Новичок" навсегда -> ссылка на раздел
  • Получай до 480 рублей за каждого приглашенного пользователя!
    представляем Вам очередное расширение партнерской программы, подробности описаны тут -> ссылка
  • 90% материалов доступно к скачиванию после простой регистрации!
    Если же ты хочешь скачивать материалы без требования оставлять отзывы то получи группу "Новичок", 10 способов повышения описаны тут -> ссылка
  • К сожалению количество битых ссылок растет и мы уже не можем их оперативно восстанавливать поэтому просим помощи у каждого нашего пользователя.
    С сегодняшнего дня, за каждую восстановленную ссылку мы заплатим Вам.
    Подробнее тут -> ссылка
  • Перенесем твои заслуги с другого ресурса!
    Мы понимаем как сложно прокачивать аккаунты на форумах, вроде раскачал аккаунт, а тут появляется ресурс в 100 раз круче но тоже с системой прокачки и снова качать аккаунт...
    Предлагаем вам перенести Ваши заслуги на другом подобном ресурсе к нам.
    Подробности описаны тут -> ссылка
  • Вы можете получать по 2.5% с каждой покупки и продажи на маркете! Подробности в теме Партнёрская программа
Если Вы не хотите скачивать, Вы всегда можетепосмотретьонлайн, просто нажмите кнопку ниже :

Открыть плеер

Torrent_Bot

Торрент-Бот
Бот форума
4 Окт 2016
79
196
20
Информация о фильме
Название: Убежище страха
Оригинальное название: Asylum of Fear
Год выпуска: 2018
Жанр:Ужасы, триллер, детектив
Режиссер: Крэйг Диринг
В ролях: Морис Демас, Майкл Медфорд, Калли Стефенс, Аллен Мерфи, Джеймс Р. Доэрти, Джо Мак, Энн Хейджманн, Мэттью Урбан, Джоетт Уотерс, Чарльз Страка

О фильме:
Команда исследователей паранормального соглашается проверить давно разрушенное психическое учреждение, где обнаруживает ужасающие подсказки и раскрывает причину жестокой резни, устроенной безумным врачом в 1960-х годах.


e3d5ad184df1a26b0f7b3176336a148e.gif
Страна: США
Студия: Evil Iguana Productions
Продолжительность: 01:19:51
Перевод: Любительский многоголосый [GreenРай Studio]

Файл
Кодек: MKV
Качество: WEBRip 720p
Видео: 3680 Кбит/с, 1920x522, 23.976 fps
Звук: Русский (AC3, 2 ch, 384 Кбит/с)

Скриншоты
812135b9b0269fc7729fe215419750d4.jpegd966c4088571e95d05d4d298980ec90d.jpegb27c8a3ae5f0413a332318e1e050359f.jpeg32db0f1c097a84ebed486f646ef17c4c.jpeg
MediaInfo
Unique ID : 250769177087750148637308037744052290586 (0xBCA863009F9FD730B841B49F35FA441A)
Complete name : D:Asylum.of.Fear.2018.P.WEB-DL.720p.mkv
Format : Matroska
Format version : Version 4 / Version 2
File size : 2.05 GiB
Duration : 1h 19mn
Overall bit rate : 3 680 Kbps
Encoded date : UTC 2018-03-06 05:58:06
Writing application : mkvmerge v8.3.0 ('Over the Horizon') 64bit
Writing library : libebml v1.3.1 + libmatroska v1.4.2

Video
ID : 1
Format : AVC
Format/Info : Advanced Video Codec
Format profile : [email protected]
Format settings, CABAC : Yes
Format settings, ReFrames : 4 frames
Codec ID : V_MPEG4/ISO/AVC
Duration : 1h 19mn
Bit rate : 3 295 Kbps
Width : 1 280 pixels
Height : 552 pixels
Display aspect ratio : 2.35:1
Frame rate mode : Constant
Frame rate : 23.976 fps
Color space : YUV
Chroma subsampling : 4:2:0
Bit depth : 8 bits
Scan type : Progressive
Bits/(Pixel*Frame) : 0.194
Stream size : 1.84 GiB (90%)
Writing library : x264 core 146 r2538 121396c
Encoding settings : cabac=1 / ref=1 / deblock=1:0:0 / analyse=0x3:0x113 / me=hex / subme=2 / psy=1 / psy_rd=1.00:0.00 / mixed_ref=0 / me_range=16 / chroma_me=1 / trellis=0 / 8x8dct=1 / cqm=0 / deadzone=21,11 / fast_pskip=1 / chroma_qp_offset=0 / threads=18 / lookahead_threads=4 / sliced_threads=0 / nr=0 / decimate=1 / interlaced=0 / bluray_compat=0 / constrained_intra=0 / bframes=3 / b_pyramid=2 / b_adapt=1 / b_bias=0 / direct=1 / weightb=1 / open_gop=0 / weightp=1 / keyint=250 / keyint_min=23 / scenecut=40 / intra_refresh=0 / rc_lookahead=10 / rc=crf / mbtree=1 / crf=14.2 / qcomp=0.60 / qpmin=0 / qpmax=69 / qpstep=4 / ip_ratio=1.40 / aq=1:1.00
Language : English
Default : Yes
Forced : No

Audio
ID : 2
Format : AC-3
Format/Info : Audio Coding 3
Mode extension : CM (complete main)
Format settings, Endianness : Big
Codec ID : A_AC3
Duration : 1h 19mn
Bit rate mode : Constant
Bit rate : 384 Kbps
Channel(s) : 2 channels
Channel positions : Front: L R
Sampling rate : 48.0 KHz
Frame rate : 31.250 fps (1536 spf)
Compression mode : Lossy
Stream size : 219 MiB (10%)
Default : Yes
Forced : No

Внимание, имеется видео и аудио реклама от спонсора показа

Над релизом работали:
Состав дикторов: Руслан Чериев, Мария Морошкина, Дмитрий Коляденко
Директор студии: Евгений Овчаренко
Техническая поддержка: Александр Методий
Организатор: Никита Марков
Пиар менеджер студии: Руслан Раскопин
Техническая поддержка: Александр Методий

Релиз от:
 

Вложения

Привет!

Мы группа людей которые решили помочь другим в решении их проблем, а так же пользователям с поиском самых свежих и качественных инфопродуктов. За 4 с небольшим месяца мы создали этот форум на который заходят ежедневно тысячи человек и посещаемость постоянно растёт. Мы создали панель лицензирования для защиты PHP скриптов от воровства и SEO панель для мониторинга наших сайтов и выбора верной стратегии их развития. Мы надеемся что то что мы создали пригодится Вам и возможно Вы поможете нам развиваться и совершенствоваться вместе с Вами.

Статистика форума

Темы
414.370
Сообщения
475.396
Пользователи
96.561
Новый пользователь
starushka

Приложения форума для iOS и Android


У ркн там нет власти ;)
Приватные разговоры
Помощь Пользователи
    Вы не присоединились ни к одной комнате.