За последнюю неделю опубликовано 44 новых материалов.
Инструкция новичку Путеводитель по форуму Прокси для Telegram Показать подсказки , это бомба!

Скачать Убежище / Hideaway (1995) WEB-DLRip 720p от KORSAR | P, A бесплатно через торрент

  • Поучаствуй (в качестве покупателя) в любых пяти совместных покупках (кроме завершённых и "Моментальных") и получи группу "Новичок" навсегда -> ссылка на раздел
  • Получай до 480 рублей за каждого приглашенного пользователя!
    представляем Вам очередное расширение партнерской программы, подробности описаны тут -> ссылка
  • 90% материалов доступно к скачиванию после простой регистрации!
    Если же ты хочешь скачивать материалы без требования оставлять отзывы то получи группу "Новичок", 10 способов повышения описаны тут -> ссылка
  • К сожалению количество битых ссылок растет и мы уже не можем их оперативно восстанавливать поэтому просим помощи у каждого нашего пользователя.
    С сегодняшнего дня, за каждую восстановленную ссылку мы заплатим Вам.
    Подробнее тут -> ссылка
  • Перенесем твои заслуги с другого ресурса!
    Мы понимаем как сложно прокачивать аккаунты на форумах, вроде раскачал аккаунт, а тут появляется ресурс в 100 раз круче но тоже с системой прокачки и снова качать аккаунт...
    Предлагаем вам перенести Ваши заслуги на другом подобном ресурсе к нам.
    Подробности описаны тут -> ссылка
  • Вы можете получать по 2.5% с каждой покупки и продажи на маркете! Подробности в теме Партнёрская программа
Если Вы не хотите скачивать, Вы всегда можетепосмотретьонлайн, просто нажмите кнопку ниже :

Открыть плеер

Torrent_Bot

Торрент-Бот
Бот форума
4 Окт 2016
90
168
20
Информация о фильме
Название: Убежище
Оригинальное название: Hideaway
Год выпуска: 1995
Выпущено: США, TriStar Pictures
Жанр:Ужасы, триллер, экранизация
Режиссер: Бретт Леонард
В ролях: Джефф Голдблюм, Кристина Лахти, Алисия Сильверстоун, Джереми Систо, Альфред Молина, Рэй Доун Чонг, Кеннет Уэлш, Сьюзи Хоаким, Ширли Бродерик

О фильме: Антиквар Хэтч Харрисон вместе с женой и дочерью попадает в страшную автомобильную аварию. Жена и дочь остаются живы. Два часа врачи отчаянно борятся за Хэтча и доктор Надбер возвращает его к жизни через 20 минут после клинической смерти. Но после выздоровления с Харрисоном начинает происходить что-то странное: его преследуют галлюцинации - видения изощренных убийств, жертвой одного из которых должна стать его дочь Реджина. Сообщения о пропавших девушках появляются в газетах, но тел не находят. Пытаясь предотвратить смерть Реджины, Хэтч сталкивается с потусторонними силами, властно вторгающимися в реальную жизнь через дверь, приоткрытую доктором Надбером, сын которого покончил собой, принеся себя в жертву Сатане.

Продолжительность: 01:45:54
Перевод: Профессиональный многоголосый, авторский
Субтитры: Английские, финские
Навигация по главам: Есть

Файл
Качество: WEB-DLRip 720p
Видео: MPEG-4 AVC, 7151 Кбит/сек, 1280x538, 23,976 кадра/сек
Аудио #1: AC3, 2 ch, 192 Кбит/сек | Русский, профессиональный (многоголосый закадровый) ТВ3
Аудио #2: AC3, 2 ch, 192 Кбит/сек | Русский, профессиональный (многоголосый закадровый)
Аудио #3: AC3, 2 ch, 192 Кбит/сек | Русский, авторский (одноголосый закадровый) Андрей Гаврилов
Аудио #4: EAC3, 6 ch, 640 Кбит/сек | Английский, оригинал



Скриншоты
Инфо-файл
x264 [info]: frame I:906 Avg QP:15.02 size:125019
x264 [info]: frame P:31842 Avg QP:17.34 size: 65182
x264 [info]: frame B:119594 Avg QP:19.12 size: 29189
-----------------------------------------------------
Общее
Уникальный идентификатор : 237164289060249101831452403175061794864 (0xB26C2E3C11102C19AF2E6D99DC8D3030)
Полное имя : Убежище.1995.WEB-DLRip.720p.KORSAR.mkv
Формат : Matroska
Версия формата : Version 2
Размер файла : 6,19 Гбайт
Продолжительность : 1 ч. 45 м.
Общий поток : 8370 Кбит/сек
Дата кодирования : UTC 2018-01-27 12:00:10
Программа кодирования : mkvmerge v5.8.0 ('No Sleep / Pillow') built on Sep 2 2012 15:37:04
Библиотека кодирования : libebml v1.2.3 + libmatroska v1.3.0

Видео
Идентификатор : 1
Формат : AVC
Формат/Информация : Advanced Video Codec
Профиль формата : [email protected]
Настройки формата : CABAC / 12 Ref Frames
Параметр CABAC формата : Да
Параметр RefFrames формата : 12 кадров
Идентификатор кодека : V_MPEG4/ISO/AVC
Продолжительность : 1 ч. 45 м.
Битрейт : 7151 Кбит/сек
Ширина : 1280 пикселей
Высота : 538 пикселей
Соотношение сторон : 2,40:1
Режим частоты кадров : Постоянный
Частота кадров : 23,976 (24000/1001) кадра/сек
Цветовое пространство : YUV
Субдискретизация насыщенности : 4:2:0
Битовая глубина : 8 бит
Тип развёртки : Прогрессивная
Бит/(Пиксели*Кадры) : 0.433
Размер потока : 5,17 Гбайт (83%)
Заголовок : RIP | MZMA
Библиотека кодирования : x264 core 152 r2851kMod ba24899
Настройки программы : cabac=1 / ref=12 / deblock=1:-3:-2 / analyse=0x3:0x113 / me=umh / subme=11 / psy=1 / fade_compensate=0.00 / psy_rd=1.00:0.00 / mixed_ref=1 / me_range=48 / chroma_me=1 / trellis=2 / 8x8dct=1 / cqm=0 / deadzone=21,11 / fast_pskip=0 / chroma_qp_offset=-2 / threads=6 / lookahead_threads=1 / sliced_threads=0 / nr=0 / decimate=0 / interlaced=0 / bluray_compat=0 / constrained_intra=0 / bframes=16 / b_pyramid=2 / b_adapt=2 / b_bias=0 / direct=3 / weightb=1 / open_gop=0 / weightp=2 / keyint=240 / keyint_min=23 / scenecut=40 / intra_refresh=0 / rc_lookahead=40 / rc=2pass / mbtree=0 / bitrate=7151 / ratetol=1.0 / qcomp=0.60 / qpmin=0 / qpmax=69 / qpstep=4 / cplxblur=20.0 / qblur=0.5 / vbv_maxrate=50000 / vbv_bufsize=62500 / nal_hrd=none / filler=0 / ip_ratio=1.40 / pb_ratio=1.30 / aq=3:0.90
Язык : English
По умолчанию : Да
Принудительно : Нет
Цветовой диапазон : Limited
Основные цвета : BT.709
Характеристики трансфера : BT.709
Коэффициенты матрицы : BT.709

Аудио #1
Идентификатор : 2
Формат : AC-3
Формат/Информация : Audio Coding 3
Идентификатор кодека : A_AC3
Продолжительность : 1 ч. 45 м.
Вид битрейта : Постоянный
Битрейт : 192 Кбит/сек
Каналы : 2 канала
Расположение каналов : Front: L R
Частота : 48,0 КГц
Частота кадров : 31,250 кадров/сек (1536 SPF)
Битовая глубина : 16 бит
Метод сжатия : С потерями
Размер потока : 145 Мбайт (2%)
Заголовок : MVO | ТВ3
Язык : Russian
По умолчанию : Да
Принудительно : Нет

Аудио #2
Идентификатор : 3
Формат : AC-3
Формат/Информация : Audio Coding 3
Идентификатор кодека : A_AC3
Продолжительность : 1 ч. 45 м.
Вид битрейта : Постоянный
Битрейт : 192 Кбит/сек
Каналы : 2 канала
Расположение каналов : Front: L R
Частота : 48,0 КГц
Частота кадров : 31,250 кадров/сек (1536 SPF)
Битовая глубина : 16 бит
Метод сжатия : С потерями
Размер потока : 145 Мбайт (2%)
Заголовок : MVO
Язык : Russian
По умолчанию : Нет
Принудительно : Нет

Аудио #3
Идентификатор : 4
Формат : AC-3
Формат/Информация : Audio Coding 3
Идентификатор кодека : A_AC3
Продолжительность : 1 ч. 45 м.
Вид битрейта : Постоянный
Битрейт : 192 Кбит/сек
Каналы : 2 канала
Расположение каналов : Front: L R
Частота : 48,0 КГц
Частота кадров : 31,250 кадров/сек (1536 SPF)
Битовая глубина : 16 бит
Метод сжатия : С потерями
Размер потока : 145 Мбайт (2%)
Заголовок : AVO | А. Гаврилов
Язык : Russian
По умолчанию : Нет
Принудительно : Нет

Аудио #4
Идентификатор : 5
Формат : E-AC-3
Формат/Информация : Enhanced Audio Coding 3
Идентификатор кодека : A_EAC3
Продолжительность : 1 ч. 45 м.
Вид битрейта : Постоянный
Битрейт : 640 Кбит/сек
Каналы : 6 каналов
Расположение каналов : Front: L C R, Side: L R, LFE
Частота : 48,0 КГц
Частота кадров : 187,500 кадров/сек (256 SPF)
Метод сжатия : С потерями
Размер потока : 485 Мбайт (8%)
Заголовок : Original
Язык : English
По умолчанию : Нет
Принудительно : Нет

Текст #1
Идентификатор : 6
Формат : UTF-8
Идентификатор кодека : S_TEXT/UTF8
Идентификатор кодека/Информация : UTF-8 Plain Text
Язык : English
По умолчанию : Нет
Принудительно : Нет

Текст #2
Идентификатор : 7
Формат : UTF-8
Идентификатор кодека : S_TEXT/UTF8
Идентификатор кодека/Информация : UTF-8 Plain Text
Заголовок : SDH
Язык : English
Default : Нет
Forced : Нет

Текст #3
Идентификатор : 8
Формат : UTF-8
Идентификатор кодека : S_TEXT/UTF8
Идентификатор кодека/Информация : UTF-8 Plain Text
Язык : Finnish
По умолчанию : Нет
Принудительно : Нет

Меню
00:00:00.000 : en:Start
00:05:45.000 : en:Harrison Family
00:10:02.000 : en:Sideswiped
00:12:11.000 : en:Drowned
00:14:48.000 : en:Hatch crosses over
00:22:27.000 : en:Violent vision
00:28:03.000 : en:Manhunt Launched
00:29:55.000 : en:Harrison's Antiques
00:33:41.000 : en:Another violent vision
00:36:26.000 : en:Lagoon Drive
00:39:37.000 : en:Visions of Regina
00:45:04.000 : en:Zoe
00:46:47.000 : en:Vassago's hideaway
00:50:56.000 : en:Blue Skies Motel
00:56:50.000 : en:Morton Redlow
00:59:32.000 : en:Rose Orwetto
01:06:37.000 : en:Vassago visits Rose
01:10:36.000 : en:Room 107
01:16:36.000 : en:Jeremy on tape
01:19:10.000 : en:With Marian
01:24:11.000 : en:Kidnapping Regina
01:26:50.000 : en:Burning vision
01:28:26.000 : en:Wonderland
01:30:26.000 : en:Land of the Dead
01:31:29.000 : en:Blinded by the light
01:34:11.000 : en:Fighting for Regina
01:36:51.000 : en:powers of Light & Dark
01:44:00.000 : en:Alternate Ending
Скачать сэмпл
Multi-UP.COM залейте нам один раз - мы зальем всюду ::" target="_blank">Ubezhishche.1995.WEB-DLRip.720p.KORSAR_sample.mkv
Релиз от:
 

Вложения

  • 32 KB Просмотры: 1
    Личеров 0
    Сидеров 0
    Файлов 1
    Объем 6,2 GB

Привет!

Мы группа людей которые решили помочь другим в решении их проблем, а так же пользователям с поиском самых свежих и качественных инфопродуктов. За 4 с небольшим месяца мы создали этот форум на который заходят ежедневно тысячи человек и посещаемость постоянно растёт. Мы создали панель лицензирования для защиты PHP скриптов от воровства и SEO панель для мониторинга наших сайтов и выбора верной стратегии их развития. Мы надеемся что то что мы создали пригодится Вам и возможно Вы поможете нам развиваться и совершенствоваться вместе с Вами.

Статистика форума

Темы
410.922
Сообщения
469.347
Пользователи
88.193
Новый пользователь
AndreyasdA

Приложения форума для iOS и Android


У ркн там нет власти ;)
Приватные разговоры
Помощь Пользователи
    Вы не присоединились ни к одной комнате.