За последнюю неделю опубликовано 57 новых материалов.
Инструкция новичку Путеводитель по форуму Прокси для Telegram Показать подсказки , это бомба!

Скачать U.D.O. & Das Musikkorps Der Bundeswehr - We Are One (2020) FLAC бесплатно через торрент

  • Поучаствуй (в качестве покупателя) в любых пяти совместных покупках (кроме завершённых и "Моментальных") и получи группу "Новичок" навсегда -> ссылка на раздел
  • Получай до 480 рублей за каждого приглашенного пользователя!
    представляем Вам очередное расширение партнерской программы, подробности описаны тут -> ссылка
  • 90% материалов доступно к скачиванию после простой регистрации!
    Если же ты хочешь скачивать материалы без требования оставлять отзывы то получи группу "Новичок", 10 способов повышения описаны тут -> ссылка
  • К сожалению количество битых ссылок растет и мы уже не можем их оперативно восстанавливать поэтому просим помощи у каждого нашего пользователя.
    С сегодняшнего дня, за каждую восстановленную ссылку мы заплатим Вам.
    Подробнее тут -> ссылка
  • Перенесем твои заслуги с другого ресурса!
    Мы понимаем как сложно прокачивать аккаунты на форумах, вроде раскачал аккаунт, а тут появляется ресурс в 100 раз круче но тоже с системой прокачки и снова качать аккаунт...
    Предлагаем вам перенести Ваши заслуги на другом подобном ресурсе к нам.
    Подробности описаны тут -> ссылка
  • Вы можете получать по 2.5% с каждой покупки и продажи на маркете! Подробности в теме Партнёрская программа

Torrent_Bot

Торрент-Бот
Бот форума
4 Окт 2016
92
163
20



Исполнитель: U.D.O. & Das Musikkorps Der Bundeswehr | Название: We Are One
Страна: Germany | Жанр: Heavy-Metal
Год: 2020 | Продолжительность: 01:14:58
Битрейт аудио: Lossless
Формат/Кодек: FLAC
Тип рипа: image+.cue
Наличие сканов:Да
Спасибо: HaRD



tracklist
01. Pandemonium (5:27)
02. We Are One (4:43)
03. Love and Sin (7:12)
04. Future Is the Reason Why (5:03)
05. Children of the World (6:35)
06. Blindfold (The Last Defender) (4:20)
07. Blackout (2:40)
08. Mother Earth (4:10)
09. Rebel Town (5:31)
10. Natural Forces (3:29)
11. Neon Diamond (5:46)
12. Beyond Gravity (4:34)
13. Here We Go Again (5:07)
14. We Strike Back (3:53)
15. Beyond Good and Evil (6:30)
Лог создания рипа
Exact Audio Copy V1.1 from 23. June 2015
EAC extraction logfile from 30. July 2020, 23:46
U.D.O. Das Musikkorps Der Bundeswehr / We Are One (MICP-11570)
Used drive : TSSTcorpDVDWBD SH-B123L Adapter: 0 ID: 4
Read mode : Secure
Utilize accurate stream : Yes
Defeat audio cache : Yes
Make use of C2 pointers : No
Read offset correction : 6
Overread into Lead-In and Lead-Out : No
Fill up missing offset samples with silence : Yes
Delete leading and trailing silent blocks : No
Null samples used in CRC calculations : Yes
Used interface : Installed external ASPI interface
Used output format : User Defined Encoder
Selected bitrate : 768 kBit/s
Quality : High
Add ID3 tag : No
Command line compressor : C:program Files (x86)Exact Audio CopyFLACFLAC.EXE
Additional command line options : -6 -V -T "ARTIST=%artist%" -T "TITLE=%title%" -T "ALBUM=%albumtitle%" -T "DATE=%year%" -T "TRACKNUMBER=%tracknr%" -T "GENRE=%genre%" -T "COMMENT=%comment%" -T "BAND=%albuminterpret%" -T "ALBUMARTIST=%albuminterpret%" -T "COMPOSER=%composer%" %haslyrics%--tag-from-file=LYRICS="%lyricsfile%"%haslyrics% -T "DISCNUMBER=%cdnumber%" -T "TOTALDISCS=%totalcds%" -T "TOTALTRACKS=%numtracks%" %hascover%--picture="%coverfile%"%hascover% %source% -o %dest%
TOC of the extracted CD
Track | Start | Length | Start sector | End sector
---------------------------------------------------------
1 | 0:00.00 | 5:27.10 | 0 | 24534
2 | 5:27.10 | 4:43.34 | 24535 | 45793
3 | 10:10.44 | 7:11.69 | 45794 | 78187
4 | 17:22.38 | 5:02.41 | 78188 | 100878
5 | 22:25.04 | 6:35.29 | 100879 | 130532
6 | 29:00.33 | 4:19.72 | 130533 | 150029
7 | 33:20.30 | 2:39.74 | 150030 | 162028
8 | 36:00.29 | 4:10.00 | 162029 | 180778
9 | 40:10.29 | 5:30.66 | 180779 | 205594
10 | 45:41.20 | 3:28.38 | 205595 | 221232
11 | 49:09.58 | 5:45.50 | 221233 | 247157
12 | 54:55.33 | 4:33.57 | 247158 | 267689
13 | 59:29.15 | 5:06.65 | 267690 | 290704
14 | 64:36.05 | 3:52.64 | 290705 | 308168
15 | 68:28.69 | 6:29.42 | 308169 | 337385
Range status and errors
Selected range
Filename E:MUSICU.D.O. Das Musikkorps Der Bundeswehr - We Are One (MICP-11570).wav
Peak level 100.0 %
Extraction speed 4.0 X
Range quality 100.0 %
Test CRC 24021BF5
Copy CRC 24021BF5
Copy OK
No errors occurred
AccurateRip summary
Track 1 not present in database
Track 2 not present in database
Track 3 not present in database
Track 4 not present in database
Track 5 not present in database
Track 6 not present in database
Track 7 not present in database
Track 8 not present in database
Track 9 not present in database
Track 10 not present in database
Track 11 not present in database
Track 12 not present in database
Track 13 not present in database
Track 14 not present in database
Track 15 not present in database
None of the tracks are present in the AccurateRip database
End of status report
==== Log checksum 9E5C2B8CB6C296F61386A132FFDA4742BB7F0E60D04ADBE1F6FBA98530BDC130 ====
DR
foobar2000 1.5 / Замер динамического диапазона (DR) 1.1.1
Дата отчёта: 2020-08-01 15:26:06

--------------------------------------------------------------------------------
Анализ: U.D.O. & Das Musikkorps Der Bundeswehr / We Are One (MICP-11570)
--------------------------------------------------------------------------------

DR Пики RMS Продолжительность трека
--------------------------------------------------------------------------------
DR6 0.00 дБ -7.44 дБ 5:27 01-Pandemonium
DR5 0.00 дБ -6.63 дБ 4:43 02-We Are One
DR5 0.00 дБ -7.42 дБ 7:12 03-Love And Sin
DR7 0.00 дБ -8.55 дБ 5:03 04-Future Is The Reason Why
DR7 0.00 дБ -8.99 дБ 6:35 05-Children Of The World
DR6 0.00 дБ -10.33 дБ 4:20 06-Blindfold (The Last Defender)
DR5 -0.67 дБ -7.98 дБ 2:40 07-Blackout
DR5 0.00 дБ -6.34 дБ 4:10 08-Mother Earth
DR5 0.00 дБ -6.77 дБ 5:31 09-Rebel Town
DR5 0.00 дБ -7.09 дБ 3:29 10-Natural Forces
DR5 0.00 дБ -6.89 дБ 5:46 11-Neon Diamond
DR6 0.00 дБ -8.94 дБ 4:34 12-Beyond Gravity
DR6 0.00 дБ -6.97 дБ 5:07 13-Here We Go Again
DR6 0.00 дБ -6.93 дБ 3:53 14-We Strike Back
DR7 0.00 дБ -9.03 дБ 6:30 15-Beyond Good And Evil
--------------------------------------------------------------------------------

Количество треков: 15
Реальные значения DR: DR6

Частота: 44100 Гц
Каналов: 2
Разрядность: 16
Битрейт: 1033 кбит/с
Кодек: FLAC
================================================================================
 

Вложения

  • 13,9 KB Просмотры: 0
    Личеров 0
    Сидеров 0
    Файлов 30
    Объем 583,3 MB

Привет!

Мы группа людей которые решили помочь другим в решении их проблем, а так же пользователям с поиском самых свежих и качественных инфопродуктов. За 4 с небольшим месяца мы создали этот форум на который заходят ежедневно тысячи человек и посещаемость постоянно растёт. Мы создали панель лицензирования для защиты PHP скриптов от воровства и SEO панель для мониторинга наших сайтов и выбора верной стратегии их развития. Мы надеемся что то что мы создали пригодится Вам и возможно Вы поможете нам развиваться и совершенствоваться вместе с Вами.

Статистика форума

Темы
406.699
Сообщения
465.163
Пользователи
84.817
Новый пользователь
Lairi

Приложения форума для iOS и Android


У ркн там нет власти ;)
Приватные разговоры
Помощь Пользователи
    Вы не присоединились ни к одной комнате.