За последнюю неделю опубликовано 88 новых материалов.
Инструкция новичку Путеводитель по форуму Прокси для Telegram Показать подсказки , это бомба!

Скачать Ты же любишь мамочку, удары которой бьют по площади двойным уроном? / Tsuujou Kougeki ga Zentai Kougeki de Nikai Kougeki no Okaasan wa Suki Desuka [S01] (2019) BDRip от Deadmauvlad | P бесплатно через торрент

  • Поучаствуй (в качестве покупателя) в любых пяти совместных покупках (кроме завершённых и "Моментальных") и получи группу "Новичок" навсегда -> ссылка на раздел
  • Получай до 480 рублей за каждого приглашенного пользователя!
    представляем Вам очередное расширение партнерской программы, подробности описаны тут -> ссылка
  • 90% материалов доступно к скачиванию после простой регистрации!
    Если же ты хочешь скачивать материалы без требования оставлять отзывы то получи группу "Новичок", 10 способов повышения описаны тут -> ссылка
  • К сожалению количество битых ссылок растет и мы уже не можем их оперативно восстанавливать поэтому просим помощи у каждого нашего пользователя.
    С сегодняшнего дня, за каждую восстановленную ссылку мы заплатим Вам.
    Подробнее тут -> ссылка
  • Перенесем твои заслуги с другого ресурса!
    Мы понимаем как сложно прокачивать аккаунты на форумах, вроде раскачал аккаунт, а тут появляется ресурс в 100 раз круче но тоже с системой прокачки и снова качать аккаунт...
    Предлагаем вам перенести Ваши заслуги на другом подобном ресурсе к нам.
    Подробности описаны тут -> ссылка
  • Вы можете получать по 2.5% с каждой покупки и продажи на маркете! Подробности в теме Партнёрская программа

Torrent_Bot

Торрент-Бот
Бот форума
4 Окт 2016
102
153
20


Информация о фильме
Название: Ты же любишь мамочку, удары которой бьют по площади двойным уроном?
Оригинальное название: Tsuujou Kougeki ga Zentai Kougeki de Nikai Kougeki no Okaasan wa Suki Desuka? (Do You Love Your Mom and Her Two-Hit Multi-Target Attacks?)
Год выпуска: 2019
Жанр:Фэнтези, комедия, приключения, мультсериал
Выпущено: Япония, J.C. Staff
Режиссер: Ёсиаки Ивасаки
В ролях: Ай Каяно, Харуки Исия, Линн, Сатоми Араи, Саяка Харата, Саюми Судзусиро, Нацуми Фудзивара

О фильме: Отношения матери и сына далеко не у всех идеальны. Министерство внутренних дел Японии обеспокоенно данным фактом, в связи с чем создаёт закрытое бета-тестирование игры, работающей на секретной технологии. Эта технология позволяет поместить тело человека внутрь MMORPG-игры (пробная версия). Цель этого проекта заключается в налаживании отношений между подростками и родителями ради всех мам и мамочек мира.
Старшеклассник Масато Осуки вместе с его матерью Мамако Осуки становятся бета-тестерами данной игры. При регистрации они получают звания «Заурядный Герой» и «Мама Заурядного Героя» соответственно, а также три святых меча. После чего их отправляют в игровой мир, из которого нельзя выйти, не выполнив главное требование игры: родитель и ребёнок должны сблизиться.



Страна: Япония
Студия: White Fox, asread
Продолжительность: 12 х ~ 00:24:00
Перевод: Профессиональный многоголосый | StudioBand по заказу [Wakanim]

Цензура: Нет (Обзор тут)



Файл
Качество: BDRip
Видео: 720x400 (16:9), 23.976 fps, XviD build 73 ~1571 kbps avg, 0.23 bit/pixel
Аудио №1: AC-3, 48,0 КГц, 2 ch, 192 Кбит/сек, CBR | | Wakanim
Аудио №2: AC-3, 48,0 КГц, 2 ch, 192 /сек, CBR | | Japan (Оригинал)
Субтитры: Русские (Полный перевод / Анилибрия)


Список Серий
01. Я уже почуял запах путешествия да будущих геройств… Но это что за ерунда?
02. То, что в отряде одни девушки, — совпадение. И не выдумывай ничего. И не надо так улыбаться.
03. Бельё — броня. Выбирай чего позащищённее. А не то сыну — кранты!
04. Все мы люди: и дети, и родители. Всякое бывает, но на то и нужна семья, чтобы решать проблемы.
05. Там владения детей, полные надежд и мечтаний. Владения детей, да! Не забывай.
06. Ах, какая красавица... Нет, мам, не ты. И не лезь ко мне в таком виде!
07. Главные в школе — ученики. Вот только… В их число входят все, кто в форме.
08. Не скажешь — сами не поймут, а скажешь — только поругаются. Сложная штука — семья.
09. Ой, а тут на полу кнопочка есть! Но наступать я не стану. Не стану, я сказал!
10. Наплыв гостей в гильдию «Вместе с мамочкой»… и все до одного незваные!
11. Смелость принять. Любящее сердце. Ну и латные доспехи! Без них в семье не обойтись… Э? Доспехи?
12. Я взмолился: не исполняй желание! Но оно всё равно исполнилось…


MediaInfo
Общее
Полное имя : [Deadmau- RAWS] Tsuujou Kougeki ga Zentai.S01.RUS.JAP.BDRip.Deadmauvlad.EP.01.avi
Формат : AVI
Формат/Информация : Audio Video Interleave
Размер файла : 334 Мбайт
Продолжительность : 23 м. 41 с.
Общий поток : 1970 Кбит/сек
Название фильма : [Deadmau- RAWS] Ты.же.любишь.мамочку.удары.которой.бьют.по.площади.двойным.уроном.S01.RUS.JAP.BDRip.Deadmauvlad.Серия.01
Режиссёр : Encoder by Deadmauvlad
Жанр : боевые искусства, комедия
Программа кодирования : VirtualDubMod 1.5.10.3 | www.virtualdub-fr.org || (build 2550/release)
Формат оригинала/Имя : Аниме
Авторское право : Encoder by Deadmauvlad
Примечание : Encoder by Deadmauvlad

Видео
Идентификатор : 0
Формат : MPEG-4 Visual
Профиль формата : Advanced Simple@L5
Настройки формата : BVOP1 / Custom Matrix
Параметр BVOP формата : 1
Параметр QPel формата : Нет
Параметр GMC формата : Без точки перехода
Параметр матрицы формата : Выборочная
Идентификатор кодека : XVID
Идентификатор кодека/Подсказка : XviD
Продолжительность : 23 м. 41 с.
Битрейт : 1572 Кбит/сек
Ширина : 720 пикселей
Высота : 400 пикселей
Соотношение сторон : 16:9
Частота кадров : 23,976 (24000/1001) кадра/сек
Цветовое пространство : YUV
Субдискретизация насыщенности : 4:2:0
Битовая глубина : 8 бит
Тип развёртки : Прогрессивная
Метод сжатия : С потерями
Бит/(Пиксели*Кадры) : 0.228
Размер потока : 266 Мбайт (80%)
Библиотека кодирования : XviD 73

Аудио #1
Идентификатор : 1
Формат : AC-3
Формат/Информация : Audio Coding 3
Коммерческое название : Dolby Digital
Идентификатор кодека : 2000
Продолжительность : 23 м. 41 с.
Вид битрейта : Постоянный
Битрейт : 192 Кбит/сек
Каналы : 2 канала
ChannelLayout : L R
Частота : 48,0 КГц
Частота кадров : 31,250 кадров/сек (1536 SPF)
Метод сжатия : С потерями
Размер потока : 32,5 Мбайт (10%)
Выравнивание : Разделение по промежуткам
Продолжительность промежутка : 42 мс. (1,00 видеокадр)
Время предзагрузки промежутка : 500 мс.


Аудио #2
Идентификатор : 2
Формат : AC-3
Формат/Информация : Audio Coding 3
Коммерческое название : Dolby Digital
Идентификатор кодека : 2000
Продолжительность : 23 м. 41 с.
Вид битрейта : Постоянный
Битрейт : 192 Кбит/сек
Каналы : 2 канала
ChannelLayout : L R
Частота : 48,0 КГц
Частота кадров : 31,250 кадров/сек (1536 SPF)
Метод сжатия : С потерями
Размер потока : 32,5 Мбайт (10%)
Выравнивание : Разделение по промежуткам
Продолжительность промежутка : 42 мс. (1,00 видеокадр)
Время предзагрузки промежутка : 500 мс.


Скриншоты
Релиз / Автор рипа: Deadmauvlad ^_^

 

Вложения

  • 14,7 KB Просмотры: 0
    Личеров 0
    Сидеров 0
    Файлов 24
    Объем 3,9 GB

Привет!

Мы группа людей которые решили помочь другим в решении их проблем, а так же пользователям с поиском самых свежих и качественных инфопродуктов. За 4 с небольшим месяца мы создали этот форум на который заходят ежедневно тысячи человек и посещаемость постоянно растёт. Мы создали панель лицензирования для защиты PHP скриптов от воровства и SEO панель для мониторинга наших сайтов и выбора верной стратегии их развития. Мы надеемся что то что мы создали пригодится Вам и возможно Вы поможете нам развиваться и совершенствоваться вместе с Вами.

Статистика форума

Темы
405.442
Сообщения
462.404
Пользователи
80.449
Новый пользователь
okop

Приложения форума для iOS и Android


У ркн там нет власти ;)
Приватные разговоры
Помощь Пользователи
    Вы не присоединились ни к одной комнате.