За последнюю неделю опубликовано 0 новых материалов.
Инструкция новичку Путеводитель по форуму Прокси для Telegram Показать подсказки , это бомба!

Скачать Ты и я / You and I (2011) HDRip от ivandubskoj | D бесплатно через торрент

  • Поучаствуй (в качестве покупателя) в любых пяти совместных покупках (кроме завершённых и "Моментальных") и получи группу "Новичок" навсегда -> ссылка на раздел
  • Получай до 480 рублей за каждого приглашенного пользователя!
    представляем Вам очередное расширение партнерской программы, подробности описаны тут -> ссылка
  • 90% материалов доступно к скачиванию после простой регистрации!
    Если же ты хочешь скачивать материалы без требования оставлять отзывы то получи группу "Новичок", 10 способов повышения описаны тут -> ссылка
  • К сожалению количество битых ссылок растет и мы уже не можем их оперативно восстанавливать поэтому просим помощи у каждого нашего пользователя.
    С сегодняшнего дня, за каждую восстановленную ссылку мы заплатим Вам.
    Подробнее тут -> ссылка
  • Перенесем твои заслуги с другого ресурса!
    Мы понимаем как сложно прокачивать аккаунты на форумах, вроде раскачал аккаунт, а тут появляется ресурс в 100 раз круче но тоже с системой прокачки и снова качать аккаунт...
    Предлагаем вам перенести Ваши заслуги на другом подобном ресурсе к нам.
    Подробности описаны тут -> ссылка
  • Вы можете получать по 2.5% с каждой покупки и продажи на маркете! Подробности в теме Партнёрская программа
Если Вы не хотите скачивать, Вы всегда можетепосмотретьонлайн, просто нажмите кнопку ниже :

Открыть плеер

Torrent_Bot

Торрент-Бот
Бот форума
4 Окт 2016
79
196
20
Информация о фильме
Название: Ты и я
Оригинальное название: You and I
Год выхода: 2011
Жанр: Драма, мелодрама, комедия
Режиссёр: Роланд Жоффе
В ролях: Миша Бартон, Шантель Ван Сантен, Антон Ельчин, Алекс Калужский, Чарли Крид-Майлз, Хелена Мэттссон, Игорь Десятников, Александр Белоногов, Лена Катина, Юлия Волкова

О фильме:
Главная героиня фильма - шестнадцатилетняя американка Джейни Соер - недавно переехала в Москву и «влюбилась» в группу Тату. На почве музыкальных пристрастий героиня знакомится в чате с русской сверстницей Ланой Старковой, и они вместе отправляются на концерт. Но, оказывается, не так-то просто попасть в Москве на стадион. По пути девчонок ожидает масса неожиданностей и опасностей, которые таит ночной город и проверят их дружбу на прочность.



Страна: США, Россия
Студия: Angels Kiss, RAMCO
Продолжительность: 01:40:42
Перевод: Дублированный [Мосфильм-Мастер]

Файл
Кодек: XviD
Качество: HDRip
Видео: XviD, 704x288 (2.40:1), 1623 Кбит/с, 23,976 кадр/с
Аудио: Русский, Dolby AC3, 48000 Гц, 448 Кбит/с, 6 каналов (5.1) - DUB, R5 [Мосфильм-Мастер]
Субтитры: Нет



Знаете ли вы, что...
• Фильм снят по мотивам романа Алексея Митрофанова и Анастасии Моисеевой «Та Ту Кам Бэк» (2006).
• Картина снята на плёнке формата 2х35.
• Первоначально фильм должен был назваться «Finding t.A.T.u.» (В поисках t.A.T.u.).
• Сценарий фильма «Ты и я» переделывали 12 раз. Окончательный вариант вышел с досъёмкой в Лос-Анджелесе. Большая же часть съемочного процесса происходила в России.
MediaInfo
General
Complete name : Ty.i.ya.2011.HDRip.avi
Format : AVI
Format/Info : Audio Video Interleave
File size : 1.46 GiB
Duration : 1h 40mn
Overall bit rate : 2 079 Kbps
Movie name : Ты и я / You and I (2011) HDRip
Genre : Драма, мелодрама, комедия
Recorded date : 28.09.2014
Writing application : VirtualDubMod 1.5.10.3 | www.virtualdub-fr.org || (build 2550/release)
Writing library : VirtualDubMod build 2550/release
Copyright : rip by ivandubskoj

Video
ID : 0
Format : MPEG-4 Visual
Format profile : Advanced [email protected]
Format settings, BVOP : 1
Format settings, QPel : No
Format settings, GMC : No warppoints
Format settings, Matrix : Custom
Codec ID : XVID
Codec ID/Hint : XviD
Duration : 1h 40mn
Bit rate : 1 623 Kbps
Width : 704 pixels
Height : 288 pixels
Display aspect ratio : 2.40:1
Frame rate : 23.976 fps
Color space : YUV
Chroma subsampling : 4:2:0
Bit depth : 8 bits
Scan type : Progressive
Compression mode : Lossy
Bits/(Pixel*Frame) : 0.334
Stream size : 1.14 GiB (78%)
Writing library : XviD 73

Audio
ID : 1
Format : AC-3
Format/Info : Audio Coding 3
Mode extension : CM (complete main)
Codec ID : 2000
Duration : 1h 40mn
Bit rate mode : Constant
Bit rate : 448 Kbps
Channel(s) : 6 channels
Channel positions : Front: L C R, Side: L R, LFE
Sampling rate : 48.0 KHz
Bit depth : 16 bits
Compression mode : Lossy
Stream size : 323 MiB (22%)
Alignment : Split accross interleaves
Interleave, duration : 64 ms (1.53 video frames)
Interleave, preload duration : 500 ms
Title : Russian, DUB [Мосфильм-Мастер]
Скриншоты


Автор рипа - ivandubskoj
 

Вложения

  • 15,7 KB Просмотры: 0
    Личеров 0
    Сидеров 0
    Файлов 1
    Объем 1,5 GB

Привет!

Мы группа людей которые решили помочь другим в решении их проблем, а так же пользователям с поиском самых свежих и качественных инфопродуктов. За 4 с небольшим месяца мы создали этот форум на который заходят ежедневно тысячи человек и посещаемость постоянно растёт. Мы создали панель лицензирования для защиты PHP скриптов от воровства и SEO панель для мониторинга наших сайтов и выбора верной стратегии их развития. Мы надеемся что то что мы создали пригодится Вам и возможно Вы поможете нам развиваться и совершенствоваться вместе с Вами.

Статистика форума

Темы
414.370
Сообщения
475.396
Пользователи
96.561
Новый пользователь
starushka

Приложения форума для iOS и Android


У ркн там нет власти ;)
Приватные разговоры
Помощь Пользователи
    Вы не присоединились ни к одной комнате.