За последнюю неделю опубликовано 38 новых материалов.
Инструкция новичку Путеводитель по форуму Прокси для Telegram Показать подсказки , это бомба!

Скачать Твои, мои и наши / Yours, Mine & Ours (2005) HDRip-AVC от ExKinoRay | D бесплатно через торрент

  • Поучаствуй (в качестве покупателя) в любых пяти совместных покупках (кроме завершённых и "Моментальных") и получи группу "Новичок" навсегда -> ссылка на раздел
  • Получай до 480 рублей за каждого приглашенного пользователя!
    представляем Вам очередное расширение партнерской программы, подробности описаны тут -> ссылка
  • 90% материалов доступно к скачиванию после простой регистрации!
    Если же ты хочешь скачивать материалы без требования оставлять отзывы то получи группу "Новичок", 10 способов повышения описаны тут -> ссылка
  • К сожалению количество битых ссылок растет и мы уже не можем их оперативно восстанавливать поэтому просим помощи у каждого нашего пользователя.
    С сегодняшнего дня, за каждую восстановленную ссылку мы заплатим Вам.
    Подробнее тут -> ссылка
  • Перенесем твои заслуги с другого ресурса!
    Мы понимаем как сложно прокачивать аккаунты на форумах, вроде раскачал аккаунт, а тут появляется ресурс в 100 раз круче но тоже с системой прокачки и снова качать аккаунт...
    Предлагаем вам перенести Ваши заслуги на другом подобном ресурсе к нам.
    Подробности описаны тут -> ссылка
  • Вы можете получать по 2.5% с каждой покупки и продажи на маркете! Подробности в теме Партнёрская программа
Если Вы не хотите скачивать, Вы всегда можетепосмотретьонлайн, просто нажмите кнопку ниже :

Открыть плеер

Torrent_Bot

Торрент-Бот
Бот форума
4 Окт 2016
90
166
20


Информация о фильме
Название: Твои, мои и наши
Оригинальное название: Yours, Mine & Ours
Год выхода: 2005
Жанр: Комедия, мелодрама, семейный
Режиссер: Раджа Госнелл
В ролях: Дрэйк Белл, Эндрю Во, Литтл ДжейДжей, Тайлер Патрик Джоунс, Дэвид Кехнер, Дин Коллинз, Миранда Косгроув, Деннис Куэйд, Джерри О'Коннелл, Брекен Палмер, Бриджер Палмер, Дэниэль Панабэйкер, Катя Певек, Слейд Пирс, Хэйли Рамм, Рене Руссо, Рип Торн, Шон Фэрис, Дженнифер Хабиб, Джессика Хабиб, Тай Панитз, Мики Ишикава, Дженика Бергер, Джош Хендерсон, Лиза Уолц, Джимми Брэдли, Матео Ариас, Джэлин Палмер, Коннор Матеус, Джордан Райт, Рубен Гранди, Бо Холден, Брэдли Госнелл, Дэн Мотт, Лиза Ричманн, Рики Фанте, Николас Роджет-Кинг, Линда Хант

О фильме:
Жена адмирала Фрэнка умерла, оставив ему восьмерых детей, покинул этот мир и муж Хелен, только она воспитывает аж десятерых шалопаев. В юношеские годы Фрэнк и Хелен встречались, и забытая страсть вспыхивает вновь, стоит им увидеть друг друга на встрече выпускников. Только вот их дети совсем не рады тому, что теперь братьев и сестер у них стало вдвое больше, причем дети Фрэнка привыкли к строгой дисциплине, в то время как в семье Хелен отношения всегда строились на свободе самовыражения.



Страна: США
Студия: Paramount Pictures, Metro-Goldwyn-Mayer (MGM), Nickelodeon Movies
Продолжительность: 01:28:05
Перевод: Профессиональный (дублированный) Невафильм

Файл
Формат: MKV
Качество: HDRip-AVC
Видео: MPEG-4 AVC, 800x340, - 1106 Кбит/с
Аудио: AAC-HE, 2 ch, - 76 Кбит/с
Субтитры: Русские, английские

MI
Общее
Уникальный идентификатор : 110238100595088541191415516680909834092 (0x52EF15FD345F9FC8603F2C552F9D476C)
Полное имя : D:MOVIESYours.Mine.and.Ours.2005.ExKinoRay.mkv
Формат : Matroska
Версия формата : Version 4 / Version 2
Размер файла : 746 Мбайт
Продолжительность : 1 ч. 28 м.
Общий поток : 1184 Кбит/сек
Дата кодирования : UTC 2019-06-29 10:29:28
Программа кодирования : mkvmerge v32.0.0 ('Astral Progressions') 64-bit
Библиотека кодирования : libebml v1.3.7 + libmatroska v1.5.0

Видео
Идентификатор : 1
Формат : AVC
Формат/Информация : Advanced Video Codec
Профиль формата : [email protected]
Параметр CABAC формата : Да
Параметр RefFrames формата : 12 кадров
Идентификатор кодека : V_MPEG4/ISO/AVC
Продолжительность : 1 ч. 28 м.
Битрейт : 1106 Кбит/сек
Ширина : 800 пикселей
Высота : 340 пикселей
Соотношение сторон : 2,35:1
Режим частоты кадров : Постоянный
Частота кадров : 23,976 (24000/1001) кадра/сек
Цветовое пространство : YUV
Субдискретизация насыщенности : 4:2:0
Битовая глубина : 8 бит
Тип развёртки : Прогрессивная
Бит/(Пиксели*Кадры) : 0.170
Размер потока : 697 Мбайт (93%)
Библиотека кодирования : x264 core 152 r2851kMod ba24899
Настройки программы : cabac=1 / ref=12 / deblock=1:-3:-3 / analyse=0x3:0x133 / me=umh / subme=10 / psy=1 / fade_compensate=0.00 / psy_rd=1.00:0.12 / mixed_ref=1 / me_range=32 / chroma_me=1 / trellis=2 / 8x8dct=1 / cqm=0 / deadzone=21,11 / fast_pskip=0 / chroma_qp_offset=-3 / threads=6 / lookahead_threads=1 / sliced_threads=0 / nr=0 / decimate=0 / interlaced=0 / bluray_compat=0 / constrained_intra=0 / bframes=12 / b_pyramid=2 / b_adapt=2 / b_bias=0 / direct=3 / weightb=1 / open_gop=0 / weightp=2 / keyint=240 / keyint_min=23 / scenecut=40 / intra_refresh=0 / rc_lookahead=40 / rc=2pass / mbtree=1 / bitrate=1106 / ratetol=1.0 / qcomp=0.60 / qpmin=0 / qpmax=69 / qpstep=4 / cplxblur=20.0 / qblur=0.5 / ip_ratio=1.40 / aq=3:1.00
Default : Да
Forced : Нет

Аудио
Идентификатор : 2
Формат : AAC
Формат/Информация : Advanced Audio Codec
Профиль формата : HE-AAC / LC
Идентификатор кодека : A_AAC
Продолжительность : 1 ч. 28 м.
Битрейт : 76,0 Кбит/сек
Каналы : 2 канала
Расположение каналов : Front: L R
Частота : 48,0 КГц / 24,0 КГц
Частота кадров : 23,438 кадра/сек (1024 SPF)
Метод сжатия : С потерями
Задержка видео : 31 мс.
Размер потока : 47,9 Мбайт (6%)
Язык : Russian
Default : Да
Forced : Нет

Текст #1
Идентификатор : 3
Формат : UTF-8
Идентификатор кодека : S_TEXT/UTF8
Идентификатор кодека/Информация : UTF-8 Plain Text
Продолжительность : 1 ч. 21 м.
Битрейт : 99 бит/сек
ElementCount : 858
Размер потока : 59,5 Кбайт (0%)
Язык : Russian
Default : Нет
Forced : Нет

Текст #2
Идентификатор : 4
Формат : UTF-8
Идентификатор кодека : S_TEXT/UTF8
Идентификатор кодека/Информация : UTF-8 Plain Text
Продолжительность : 1 ч. 21 м.
Битрейт : 71 бит/сек
ElementCount : 1232
Размер потока : 42,4 Кбайт (0%)
Язык : English
Default : Нет
Forced : Нет

Меню
00:00:00.000 : en:00:00:00.000
00:06:30.390 : en:00:06:30.390
00:14:14.854 : en:00:14:14.854
00:19:23.162 : en:00:19:23.162
00:24:01.440 : en:00:24:01.440
00:33:31.009 : en:00:33:31.009
00:45:52.750 : en:00:45:52.750
00:57:15.432 : en:00:57:15.432
01:02:41.758 : en:01:02:41.758
01:12:40.356 : en:01:12:40.356
01:18:26.702 : en:01:18:26.702
01:21:29.885 : en:01:21:29.885
Скриншоты

 

Вложения

  • 15,6 KB Просмотры: 1
    Личеров 0
    Сидеров 0
    Файлов 1
    Объем 745,9 MB

Привет!

Мы группа людей которые решили помочь другим в решении их проблем, а так же пользователям с поиском самых свежих и качественных инфопродуктов. За 4 с небольшим месяца мы создали этот форум на который заходят ежедневно тысячи человек и посещаемость постоянно растёт. Мы создали панель лицензирования для защиты PHP скриптов от воровства и SEO панель для мониторинга наших сайтов и выбора верной стратегии их развития. Мы надеемся что то что мы создали пригодится Вам и возможно Вы поможете нам развиваться и совершенствоваться вместе с Вами.

Статистика форума

Темы
410.864
Сообщения
469.404
Пользователи
87.833
Новый пользователь
Светлана91

Приложения форума для iOS и Android


У ркн там нет власти ;)
Приватные разговоры
Помощь Пользователи
    Вы не присоединились ни к одной комнате.