За последнюю неделю опубликовано 58 новых материалов.
Инструкция новичку Путеводитель по форуму Прокси для Telegram Показать подсказки , это бомба!

Скачать Тварь (2019) BDRip-AVC | GER Transfer | Лицензия бесплатно через торрент

  • Поучаствуй (в качестве покупателя) в любых пяти совместных покупках (кроме завершённых и "Моментальных") и получи группу "Новичок" навсегда -> ссылка на раздел
  • Получай до 480 рублей за каждого приглашенного пользователя!
    представляем Вам очередное расширение партнерской программы, подробности описаны тут -> ссылка
  • 90% материалов доступно к скачиванию после простой регистрации!
    Если же ты хочешь скачивать материалы без требования оставлять отзывы то получи группу "Новичок", 10 способов повышения описаны тут -> ссылка
  • К сожалению количество битых ссылок растет и мы уже не можем их оперативно восстанавливать поэтому просим помощи у каждого нашего пользователя.
    С сегодняшнего дня, за каждую восстановленную ссылку мы заплатим Вам.
    Подробнее тут -> ссылка
  • Перенесем твои заслуги с другого ресурса!
    Мы понимаем как сложно прокачивать аккаунты на форумах, вроде раскачал аккаунт, а тут появляется ресурс в 100 раз круче но тоже с системой прокачки и снова качать аккаунт...
    Предлагаем вам перенести Ваши заслуги на другом подобном ресурсе к нам.
    Подробности описаны тут -> ссылка
  • Вы можете получать по 2.5% с каждой покупки и продажи на маркете! Подробности в теме Партнёрская программа
Если Вы не хотите скачивать, Вы всегда можетепосмотретьонлайн, просто нажмите кнопку ниже :

Открыть плеер

Torrent_Bot

Торрент-Бот
Бот форума
4 Окт 2016
92
160
20



Информация о фильме
Название: Тварь
Год выхода: 2019
Жанр: Триллер, драма
Режиссер: Ольга Городецкая
В ролях: Елена Лядова, Владимир Вдовиченков, Севастьян Бугаев, Ян Рунов, Евгений Цыганов, Анна Уколова, Константин Тополага, Роза Хайруллина, Евгений Антропов, Константин Мурзенко


О фильме:
Игорь готов на всё ради счастья Полины и, чтобы восполнить утрату сына, супруги решаются на усыновление. Но вместо обычного мальчика из приюта в их семью попадает не просто «трудный» ребенок…




Страна: Россия
Студия: Кинокомпания СОК
Продолжительность: 01:30:15
Перевод: Не требуется | Лицензия Blu-ray GER


Файл
Качество: BDRip-AVC
Исходник: Evil.Boy.2019.GERMAN.DUAL.COMPLETE.BLURAY-UNiVERSUM
Формат: MKV
Кодек: MPEG-4 AVC
Видео: 1024x430 (2.40:1), 24 fps, MPEG-4 AVC, 1864 Кbps avg, 0.176 bit/pixel
Аудио: AC3, 48 kHz, 6 ch, ~448.00 kbps avg | русский | Blu-ray GER
Субтитры: Отсутствуют


Инфо-файл
Общее
Уникальный идентификатор : 100392678802066265865195963003019303828 (0x4B86ED37A34487C7F694A233FE999B94)
Полное имя : Evil.Boy.2019.GER.BDRip.1.46Gb.x264.mkv
Формат : Matroska
Версия формата : Version 4
Размер файла : 1,46 Гбайт
Продолжительность : 1 ч. 30 м.
Общий поток : 2 314 Кбит/сек
Название фильма : Тварь (2019)
Дата кодирования : UTC 2020-08-11 07:31:09
Программа кодирования : mkvmerge v47.0.0 ('Black Flag') 64-bit
Библиотека кодирования : libebml v1.3.10 + libmatroska v1.5.2
Обложка : Yes
Attachments : cover.jpg

Видео
Идентификатор : 1
Формат : AVC
Формат/Информация : Advanced Video Codec
Профиль формата : [email protected]
Настройки формата : CABAC / 10 Ref Frames
Параметр CABAC формата : Да
Параметр RefFrames формата : 10 кадров
Идентификатор кодека : V_MPEG4/ISO/AVC
Продолжительность : 1 ч. 30 м.
Битрейт : 1 864 Кбит/сек
Ширина : 1 024 пикселя
Высота : 430 пикселей
Соотношение сторон : 2,40:1
Режим частоты кадров : Постоянный
Частота кадров : 24,000 кадра/сек
Цветовое пространство : YUV
Субдискретизация насыщенности : 4:2:0
Битовая глубина : 8 бит
Тип развёртки : Прогрессивная
Бит/(Пиксели*Кадры) : 0.176
Размер потока : 1,18 Гбайт (81%)
Заголовок : #stillet
Библиотека кодирования : x264 core 152 r2851bm ba24899
Настройки программы : cabac=1 / ref=10 / deblock=1:-3:-3 / analyse=0x3:0x113 / me=umh / subme=11 / psy=1 / psy_rd=1.00:0.15 / mixed_ref=1 / me_range=32 / chroma_me=1 / trellis=2 / 8x8dct=1 / cqm=0 / deadzone=21,11 / fast_pskip=0 / chroma_qp_offset=-3 / threads=8 / lookahead_threads=3 / sliced_threads=0 / nr=0 / decimate=0 / interlaced=0 / bluray_compat=0 / constrained_intra=0 / bframes=11 / b_pyramid=2 / b_adapt=2 / b_bias=0 / direct=3 / weightb=1 / open_gop=0 / weightp=2 / keyint=240 / keyint_min=24 / scenecut=40 / intra_refresh=0 / rc=2pass / mbtree=0 / bitrate=1864 / ratetol=1.0 / qcomp=0.60 / qpmin=0 / qpmax=69 / qpstep=4 / cplxblur=20.0 / qblur=0.5 / ip_ratio=1.40 / pb_ratio=1.30 / aq=1:1.00
Язык : German
Default : Да
Forced : Нет

Аудио
Идентификатор : 2
Формат : AC-3
Формат/Информация : Audio Coding 3
Коммерческое название : Dolby Digital
Идентификатор кодека : A_AC3
Продолжительность : 1 ч. 30 м.
Вид битрейта : Постоянный
Битрейт : 448 Кбит/сек
Каналы : 6 каналов
Channel layout : L R C LFE Ls Rs
Частота : 48,0 КГц
Частота кадров : 31,250 кадров/сек (1536 SPF)
Метод сжатия : С потерями
Размер потока : 289 Мбайт (19%)
Заголовок : Blu-ray GER
Язык : Russian
Service kind : Complete Main
Default : Да
Forced : Да

Меню
00:00:00.000 : de:Глава 01
00:08:45.208 : de:Глава 02
00:19:47.708 : de:Глава 03
00:29:14.542 : de:Глава 04
00:39:57.917 : de:Глава 05
00:46:11.333 : de:Глава 06
00:54:14.000 : de:Глава 07
00:59:32.167 : de:Глава 08
01:06:38.542 : de:Глава 09
01:12:34.792 : de:Глава 10
01:18:40.708 : de:Глава 11
01:23:14.833 : de:Глава 12
Скриншоты
 

Вложения

  • 15,5 KB Просмотры: 0
    Личеров 0
    Сидеров 0
    Файлов 1
    Объем 1,5 GB

Привет!

Мы группа людей которые решили помочь другим в решении их проблем, а так же пользователям с поиском самых свежих и качественных инфопродуктов. За 4 с небольшим месяца мы создали этот форум на который заходят ежедневно тысячи человек и посещаемость постоянно растёт. Мы создали панель лицензирования для защиты PHP скриптов от воровства и SEO панель для мониторинга наших сайтов и выбора верной стратегии их развития. Мы надеемся что то что мы создали пригодится Вам и возможно Вы поможете нам развиваться и совершенствоваться вместе с Вами.

Статистика форума

Темы
406.651
Сообщения
465.099
Пользователи
84.659
Новый пользователь
кнунун

Приложения форума для iOS и Android


У ркн там нет власти ;)
Приватные разговоры
Помощь Пользователи
    Вы не присоединились ни к одной комнате.