За последнюю неделю опубликовано 65 новых материалов.
Инструкция новичку Путеводитель по форуму Прокси для Telegram Показать подсказки , это бомба!

Скачать Троя / Troy (2004) DVDRip-AVC | D | Fullscreen бесплатно через торрент

  • Поучаствуй (в качестве покупателя) в любых пяти совместных покупках (кроме завершённых и "Моментальных") и получи группу "Новичок" навсегда -> ссылка на раздел
  • Получай до 480 рублей за каждого приглашенного пользователя!
    представляем Вам очередное расширение партнерской программы, подробности описаны тут -> ссылка
  • 90% материалов доступно к скачиванию после простой регистрации!
    Если же ты хочешь скачивать материалы без требования оставлять отзывы то получи группу "Новичок", 10 способов повышения описаны тут -> ссылка
  • К сожалению количество битых ссылок растет и мы уже не можем их оперативно восстанавливать поэтому просим помощи у каждого нашего пользователя.
    С сегодняшнего дня, за каждую восстановленную ссылку мы заплатим Вам.
    Подробнее тут -> ссылка
  • Перенесем твои заслуги с другого ресурса!
    Мы понимаем как сложно прокачивать аккаунты на форумах, вроде раскачал аккаунт, а тут появляется ресурс в 100 раз круче но тоже с системой прокачки и снова качать аккаунт...
    Предлагаем вам перенести Ваши заслуги на другом подобном ресурсе к нам.
    Подробности описаны тут -> ссылка
  • Вы можете получать по 2.5% с каждой покупки и продажи на маркете! Подробности в теме Партнёрская программа
Если Вы не хотите скачивать, Вы всегда можетепосмотретьонлайн, просто нажмите кнопку ниже :

Открыть плеер

Torrent_Bot

Торрент-Бот
Бот форума
4 Окт 2016
92
160
20



Название: Троя
Оригинальное название: Troy
Год выхода: 2004
Жанр: боевик, драма, мелодрама, исторический
Режиссер: Вольфганг Петерсен
В ролях: Брэд Питт, Эрик Бана, Орландо Блум, Брайан Кокс, Дайан Крюгер, Брендан Глисон, Шон Бин, Джули Кристи, Питер О’Тул, Роуз Бирн

О фильме:
1193 год до нашей эры. Парис украл прекрасную Елену, жену царя Спарты Менелая. За честь Менелая вступается его брат – царь Агамемнон. Его армия под предводительством Ахиллеса подошла к Трое и взяла город в кровавую осаду, длившуюся долгих десять лет… Два мира будут воевать за честь и власть. Тысячи умрут за славу. И за любовь нация сгорит дотла.



Страна: США, Великобритания, Мальта
Продолжительность: 02:42:46
Перевод: Профессиональный (полное дублирование)

Формат: MKV
Качество: DVDRip-AVC
Видео: AVC/H.264, 720x480(4:3)@720x540, 23.976 fps, ~2495 Kbps
Аудио 1: AC3, 6 ch, 384 kbps - Русский (DUB)
Аудио 2: AC3, 6 ch, 448 kbps - Английский
Субтитры: русские, английские

MediaInfo
General
Unique ID : 138299708584638070027494761115978955947 (0x680B8E14E4E2238ADFB8D9FA1BE5FCAB)
Complete name : D:uTorrentUploadTroy (2004) DVDRip-AVC Full Screen.mkv
Format : Matroska
Format version : Version 4
File size : 3.79 GiB
Duration : 2 h 42 min
Overall bit rate : 3 329 kb/s
Encoded date : UTC 2020-08-23 03:29:28
Writing application : mkvmerge v37.0.0 ('Leave It') 64-bit
Writing library : libebml v1.3.9 + libmatroska v1.5.2

Video
ID : 1
Format : AVC
Format/Info : Advanced Video Codec
Format profile : [email protected]
Format settings : CABAC / 12 Ref Frames
Format settings, CABAC : Yes
Format settings, Reference frames : 12 frames
Codec ID : V_MPEG4/ISO/AVC
Duration : 2 h 42 min
Bit rate : 2 495 kb/s
Width : 720 pixels
Height : 480 pixels
Display aspect ratio : 4:3
Frame rate mode : Constant
Frame rate : 23.976 (24000/1001) FPS
Color space : YUV
Chroma subsampling : 4:2:0
Bit depth : 8 bits
Scan type : Progressive
Bits/(Pixel*Frame) : 0.301
Stream size : 2.84 GiB (75%)
Writing library : x264 core 161 r3018 db0d417
Encoding settings : cabac=1 / ref=12 / deblock=1:-2:-2 / analyse=0x3:0x113 / me=umh / subme=11 / psy=1 / psy_rd=1.00:0.10 / mixed_ref=1 / me_range=32 / chroma_me=1 / trellis=2 / 8x8dct=1 / cqm=0 / deadzone=21,11 / fast_pskip=0 / chroma_qp_offset=-3 / threads=6 / lookahead_threads=1 / sliced_threads=0 / nr=0 / decimate=1 / interlaced=0 / bluray_compat=0 / constrained_intra=0 / bframes=9 / b_pyramid=2 / b_adapt=2 / b_bias=0 / direct=1 / weightb=1 / open_gop=0 / weightp=2 / keyint=240 / keyint_min=23 / scenecut=40 / intra_refresh=0 / rc_lookahead=60 / rc=crf / mbtree=0 / crf=17.7 / qcomp=0.62 / qpmin=0 / qpmax=69 / qpstep=4 / vbv_maxrate=50000 / vbv_bufsize=62500 / crf_max=0.0 / nal_hrd=none / filler=0 / ip_ratio=1.40 / pb_ratio=1.30 / aq=3:0.85
Default : Yes
Forced : No

Audio #1
ID : 2
Format : AC-3
Format/Info : Audio Coding 3
Commercial name : Dolby Digital
Codec ID : A_AC3
Duration : 2 h 42 min
Bit rate mode : Constant
Bit rate : 384 kb/s
Channel(s) : 6 channels
Channel layout : L R C LFE Ls Rs
Sampling rate : 48.0 kHz
Frame rate : 31.250 FPS (1536 SPF)
Compression mode : Lossy
Stream size : 447 MiB (12%)
Language : Russian
Service kind : Complete Main
Default : Yes
Forced : No

Audio #2
ID : 3
Format : AC-3
Format/Info : Audio Coding 3
Commercial name : Dolby Digital
Codec ID : A_AC3
Duration : 2 h 42 min
Bit rate mode : Constant
Bit rate : 448 kb/s
Channel(s) : 6 channels
Channel layout : L R C LFE Ls Rs
Sampling rate : 48.0 kHz
Frame rate : 31.250 FPS (1536 SPF)
Compression mode : Lossy
Stream size : 522 MiB (13%)
Language : English
Service kind : Complete Main
Default : No
Forced : No

Text #1
ID : 4
Format : UTF-8
Codec ID : S_TEXT/UTF8
Codec ID/Info : UTF-8 Plain Text
Duration : 2 h 32 min
Bit rate : 55 b/s
Count of elements : 1163
Stream size : 62.4 KiB (0%)
Language : Russian
Default : No
Forced : No

Text #2
ID : 5
Format : UTF-8
Codec ID : S_TEXT/UTF8
Codec ID/Info : UTF-8 Plain Text
Duration : 2 h 31 min
Bit rate : 33 b/s
Count of elements : 1153
Stream size : 37.0 KiB (0%)
Language : English
Default : No
Forced : No

Menu
00:00:00.083 : en:Chapter 01
00:02:01.788 : en:Chapter 02
00:06:44.570 : en:Chapter 03
00:09:22.228 : en:Chapter 04
00:14:32.538 : en:Chapter 05
00:19:26.832 : en:Chapter 06
00:21:15.607 : en:Chapter 07
00:24:31.136 : en:Chapter 08
00:27:26.144 : en:Chapter 09
00:30:17.816 : en:Chapter 10
00:33:36.681 : en:Chapter 11
00:39:29.734 : en:Chapter 12
00:44:02.806 : en:Chapter 13
00:48:54.798 : en:Chapter 14
00:52:35.936 : en:Chapter 15
00:56:52.742 : en:Chapter 16
01:00:28.291 : en:Chapter 17
01:03:21.631 : en:Chapter 18
01:05:21.083 : en:Chapter 19
01:09:36.839 : en:Chapter 20
01:12:48.530 : en:Chapter 21
01:17:24.506 : en:Chapter 22
01:21:01.022 : en:Chapter 23
01:23:36.378 : en:Chapter 24
01:27:27.075 : en:Chapter 25
01:33:05.446 : en:Chapter 26
01:37:18.499 : en:Chapter 27
01:41:12.433 : en:Chapter 28
01:45:35.112 : en:Chapter 29
01:47:22.436 : en:Chapter 30
01:50:46.306 : en:Chapter 31
01:56:27.513 : en:Chapter 32
01:58:51.791 : en:Chapter 33
02:02:05.318 : en:Chapter 34
02:04:12.111 : en:Chapter 35
02:10:04.630 : en:Chapter 36
02:12:06.418 : en:Chapter 37
02:15:42.467 : en:Chapter 38
02:18:52.991 : en:Chapter 39
02:22:56.401 : en:Chapter 40
02:25:04.729 : en:Chapter 41
02:28:05.826 : en:Chapter 42
02:31:06.424 : en:Chapter 43
02:32:58.169 : en:Chapter 44
Сравнения:




Скриншоты

 

Вложения

  • 19,8 KB Просмотры: 0
    Личеров 0
    Сидеров 0
    Файлов 1
    Объем 3,8 GB

Привет!

Мы группа людей которые решили помочь другим в решении их проблем, а так же пользователям с поиском самых свежих и качественных инфопродуктов. За 4 с небольшим месяца мы создали этот форум на который заходят ежедневно тысячи человек и посещаемость постоянно растёт. Мы создали панель лицензирования для защиты PHP скриптов от воровства и SEO панель для мониторинга наших сайтов и выбора верной стратегии их развития. Мы надеемся что то что мы создали пригодится Вам и возможно Вы поможете нам развиваться и совершенствоваться вместе с Вами.

Статистика форума

Темы
406.658
Сообщения
465.103
Пользователи
84.688
Новый пользователь
Knight59136

Приложения форума для iOS и Android


У ркн там нет власти ;)
Приватные разговоры
Помощь Пользователи
    Вы не присоединились ни к одной комнате.