За последнюю неделю опубликовано 57 новых материалов.
Инструкция новичку Путеводитель по форуму Прокси для Telegram Показать подсказки , это бомба!

Скачать Трое / Threesome (1994) WEB-DL 1080p | P, А, L1 бесплатно через торрент

  • Поучаствуй (в качестве покупателя) в любых пяти совместных покупках (кроме завершённых и "Моментальных") и получи группу "Новичок" навсегда -> ссылка на раздел
  • Получай до 480 рублей за каждого приглашенного пользователя!
    представляем Вам очередное расширение партнерской программы, подробности описаны тут -> ссылка
  • 90% материалов доступно к скачиванию после простой регистрации!
    Если же ты хочешь скачивать материалы без требования оставлять отзывы то получи группу "Новичок", 10 способов повышения описаны тут -> ссылка
  • К сожалению количество битых ссылок растет и мы уже не можем их оперативно восстанавливать поэтому просим помощи у каждого нашего пользователя.
    С сегодняшнего дня, за каждую восстановленную ссылку мы заплатим Вам.
    Подробнее тут -> ссылка
  • Перенесем твои заслуги с другого ресурса!
    Мы понимаем как сложно прокачивать аккаунты на форумах, вроде раскачал аккаунт, а тут появляется ресурс в 100 раз круче но тоже с системой прокачки и снова качать аккаунт...
    Предлагаем вам перенести Ваши заслуги на другом подобном ресурсе к нам.
    Подробности описаны тут -> ссылка
  • Вы можете получать по 2.5% с каждой покупки и продажи на маркете! Подробности в теме Партнёрская программа
Если Вы не хотите скачивать, Вы всегда можетепосмотретьонлайн, просто нажмите кнопку ниже :

Открыть плеер

Torrent_Bot

Торрент-Бот
Бот форума
4 Окт 2016
92
163
20

Название: Трое
Оригинальное название: Threesome
Год выхода: 1994
Страна: США
Студия: Motion Picture Corporation of America (MPCA), TriStar Pictures
Продолжительность: 01:33:17
Жанр: драма, мелодрама, комедия

Режиссер: Эндрю Флеминг
В ролях: Лара Флинн Бойл, Стивен Болдуин, Джош Чарльз, Алексис Аркетт, Марта Геман, Марк Арнольд, Мишель Мэтисон, Джоэнн Барон, Дженнифер Лоулер, Джек Брешард, ....

Перевод:
профессиональный (многоголосый, закадровый) Первый канал
авторский (одноголосый, закадровый) Алексеев Антон Васильевич
любительский (одноголосый, закадровый) Тамело Андрей

О фильме: Студенты Эдди и Стюарт вдвоем занимают большую комнату в студенческом общежитии. По ошибке к ним подселяют девушку по имени Алекс. Эдди и Стюарт очень рады появлению новенькой соседки, но вскоре отношения между соседями превращаются в любовный треугольник.
Алекс влюбляется в Эдди, а Стюарт ищет расположения Алекс. Сексуальное напряжение возрастает, когда Эдди осознает, что он гей и любит Стюарта.... Запутавшиеся в своих чувствах соседи находят оригинальный выход из создавшегося положения…



Кодек: MPEG4/ISO/AVC
Качество: WEB-DL 1080p
Видео: 1920x1080, 14200 kbps, 23,976 fps
Аудио #1: AC-3, 2 ch, 192 kbps (Rus) - MVO Первый канал
Аудио #2: AC-3, 2 ch, 192 kbps (Rus) - AVO Алексеев Антон Васильевич
Аудио #3: AC-3, 2 ch, 192 kbps (Rus) - VO Тамело Андрей
Аудио #4: AC-3, 2 ch, 224 kbps (Eng)
Субтитры: английские

MediaInfo
Общее
Уникальный идентификатор : 248391338484803230156860849050722519652 (0xBADE6E8204D5F9169AE9527BB93C4A64)
Полное имя : Трое (Threesome) 1994 WEBRip 1080p.mkv
Формат : Matroska
Версия формата : Version 2
Размер файла : 9,95 Гбайт
Продолжительность : 1 ч. 33 м.
Режим общего битрейта : Переменный
Общий поток : 15,3 Мбит/сек
Дата кодирования : UTC 2020-08-08 17:10:32
Программа кодирования : mkvmerge v4.0.0 ('The Stars were mine') сборка от Jun 6 2010 16:18:42
Библиотека кодирования : libebml v1.0.0 + libmatroska v1.0.0

Видео
Идентификатор : 1
Формат : AVC
Формат/Информация : Advanced Video Codec
Профиль формата : [email protected]
Параметр CABAC формата : Да
Параметр ReFrames формата : 4 кадра
Идентификатор кодека : V_MPEG4/ISO/AVC
Продолжительность : 1 ч. 33 м.
Вид битрейта : Переменный
Битрейт : 14,2 Мбит/сек
Максимальный битрейт : 15,0 Мбит/сек
Ширина : 1920 пикселей
Высота : 1080 пикселей
Соотношение сторон : 16:9
Режим частоты кадров : Постоянный
Частота кадров : 23,976 (24000/1001) кадра/сек
Цветовое пространство : YUV
Субдискретизация насыщенности : 4:2:0
Битовая глубина : 8 бит
Тип развёртки : Прогрессивная
Бит/(Пиксели*Кадры) : 0.285
Размер потока : 9,23 Гбайт (93%)
Язык : English
Default : Нет
Forced : Нет
Цветовой диапазон : Limited
Основные цвета : BT.709
Характеристики трансфера : BT.709
Коэффициенты матрицы : BT.709

Аудио #1
Идентификатор : 2
Формат : AC-3
Формат/Информация : Audio Coding 3
Расширение режима : CM (complete main)
Параметр Endianness формата : Big
Идентификатор кодека : A_AC3
Продолжительность : 1 ч. 33 м.
Вид битрейта : Постоянный
Битрейт : 192 Кбит/сек
Каналы : 2 канала
Расположение каналов : Front: L R
Частота : 48,0 КГц
Частота кадров : 31,250 кадров/сек (1536 spf)
Метод сжатия : С потерями
Размер потока : 128 Мбайт (1%)
Заголовок : MVO Первый канал
Язык : Russian
Default : Нет
Forced : Нет

Аудио #2
Идентификатор : 3
Формат : AC-3
Формат/Информация : Audio Coding 3
Расширение режима : CM (complete main)
Параметр Endianness формата : Big
Идентификатор кодека : A_AC3
Продолжительность : 1 ч. 33 м.
Вид битрейта : Постоянный
Битрейт : 192 Кбит/сек
Каналы : 2 канала
Расположение каналов : Front: L R
Частота : 48,0 КГц
Частота кадров : 31,250 кадров/сек (1536 spf)
Метод сжатия : С потерями
Размер потока : 128 Мбайт (1%)
Заголовок : AVO Алексеев Антон Васильевич
Язык : Russian
Default : Нет
Forced : Нет

Аудио #3
Идентификатор : 4
Формат : AC-3
Формат/Информация : Audio Coding 3
Расширение режима : CM (complete main)
Параметр Endianness формата : Big
Идентификатор кодека : A_AC3
Продолжительность : 1 ч. 33 м.
Вид битрейта : Постоянный
Битрейт : 192 Кбит/сек
Каналы : 2 канала
Расположение каналов : Front: L R
Частота : 48,0 КГц
Частота кадров : 31,250 кадров/сек (1536 spf)
Метод сжатия : С потерями
Размер потока : 128 Мбайт (1%)
Заголовок : VO Тамело Андрей
Язык : Russian
Default : Нет
Forced : Нет

Аудио #4
Идентификатор : 5
Формат : AC-3
Формат/Информация : Audio Coding 3
Расширение режима : CM (complete main)
Параметр Endianness формата : Big
Идентификатор кодека : A_AC3
Продолжительность : 1 ч. 33 м.
Вид битрейта : Постоянный
Битрейт : 224 Кбит/сек
Каналы : 2 канала
Расположение каналов : Front: L R
Частота : 48,0 КГц
Частота кадров : 31,250 кадров/сек (1536 spf)
Метод сжатия : С потерями
Размер потока : 149 Мбайт (1%)
Язык : English
Default : Нет
Forced : Нет

Текст #1
Идентификатор : 6
Формат : UTF-8
Идентификатор кодека : S_TEXT/UTF8
Идентификатор кодека/Информация : UTF-8 Plain Text
Язык : English
Default : Нет
Forced : Нет

Текст #2
Идентификатор : 7
Формат : UTF-8
Идентификатор кодека : S_TEXT/UTF8
Идентификатор кодека/Информация : UTF-8 Plain Text
Заголовок : SDH
Язык : English
Default : Нет
Forced : Нет

Меню
00:00:00.000 : en: 00:00:00 - Start
00:03:43.681 : en: 00:03:43 - Eddy meets Stuart
00:05:52.215 : en: 00:05:52 - "Alex is my full name"
00:09:51.549 : en: 00:09:51 - Discussing J.D.Salinger
00:12:43.616 : en: 00:12:43 - oEdipus Rex
00:14:18.850 : en: 00:14:18 - Putting hie moves on Eddy
00:20:06.684 : en: 00:20:06 - Who he really lust after
00:21:36.184 : en: 00:21:36 - Stuart the intellectual
00:24:24.217 : en: 00:24:24 - "I'm sexually ambivalent."
00:29:33.051 : en: 00:29:33 - "Do you like boys or girls?"
00:31:42.551 : en: 00:31:42 - A sacred vow
00:33:56.352 : en: 00:33:56 - Becoming friends
00:36:53.552 : en: 00:36:53 - Larry
00:41:17.186 : en: 00:41:17 - Shaving cream fight
00:43:42.686 : en: 00:43:42 - Meeting Stuart's friends
00:48:13.686 : en: 00:48:13 - Richard
00:52:38.686 : en: 00:52:38 - Skinny-dippers
00:54:52.220 : en: 00:54:52 - Opening pandora's box
00:59:57.887 : en: 00:59:57 - Making Alex feet better
01:02:24.054 : en: 01:02:24 - Eddy calls to apologize
01:06:18.022 : en: 01:06:18 - Sex with a woman
01:09:20.890 : en: 01:09:20 - Sharing Eddy's secret
01:10:56.524 : en: 01:10:56 - A talk in the park
01:12:40.024 : en: 01:12:40 - Eddy & Stuart
01:19:55.892 : en: 01:19:55 - Threesome
01:23:41.860 : en: 01:23:41 - Pregnancy test
01:26:50.728 : en: 01:26:50 - Breaking up
01:28:34.861 : en: 01:28:34 - Aftermath
01:33:11.994 : en: 01:30:03 - titry

 

Вложения

  • 50,6 KB Просмотры: 0
    Личеров 0
    Сидеров 0
    Файлов 1
    Объем 9,9 GB

Привет!

Мы группа людей которые решили помочь другим в решении их проблем, а так же пользователям с поиском самых свежих и качественных инфопродуктов. За 4 с небольшим месяца мы создали этот форум на который заходят ежедневно тысячи человек и посещаемость постоянно растёт. Мы создали панель лицензирования для защиты PHP скриптов от воровства и SEO панель для мониторинга наших сайтов и выбора верной стратегии их развития. Мы надеемся что то что мы создали пригодится Вам и возможно Вы поможете нам развиваться и совершенствоваться вместе с Вами.

Статистика форума

Темы
406.698
Сообщения
465.159
Пользователи
84.776
Новый пользователь
keks38

Приложения форума для iOS и Android


У ркн там нет власти ;)
Приватные разговоры
Помощь Пользователи
    Вы не присоединились ни к одной комнате.