За последнюю неделю опубликовано 168 новых материалов.
Инструкция новичку Путеводитель по форуму Прокси для Telegram Показать подсказки , это бомба!

Скачать Три секунды / The Informer (2019) BDRip-AVC от ExKinoRay | D бесплатно через торрент

  • Поучаствуй (в качестве покупателя) в любых пяти совместных покупках (кроме завершённых и "Моментальных") и получи группу "Новичок" навсегда -> ссылка на раздел
  • Получай до 480 рублей за каждого приглашенного пользователя!
    представляем Вам очередное расширение партнерской программы, подробности описаны тут -> ссылка
  • 90% материалов доступно к скачиванию после простой регистрации!
    Если же ты хочешь скачивать материалы без требования оставлять отзывы то получи группу "Новичок", 10 способов повышения описаны тут -> ссылка
  • К сожалению количество битых ссылок растет и мы уже не можем их оперативно восстанавливать поэтому просим помощи у каждого нашего пользователя.
    С сегодняшнего дня, за каждую восстановленную ссылку мы заплатим Вам.
    Подробнее тут -> ссылка
  • Перенесем твои заслуги с другого ресурса!
    Мы понимаем как сложно прокачивать аккаунты на форумах, вроде раскачал аккаунт, а тут появляется ресурс в 100 раз круче но тоже с системой прокачки и снова качать аккаунт...
    Предлагаем вам перенести Ваши заслуги на другом подобном ресурсе к нам.
    Подробности описаны тут -> ссылка
  • Вы можете получать по 2.5% с каждой покупки и продажи на маркете! Подробности в теме Партнёрская программа
Если Вы не хотите скачивать, Вы всегда можетепосмотретьонлайн, просто нажмите кнопку ниже :

Открыть плеер

Torrent_Bot

Торрент-Бот
Бот форума
4 Окт 2016
124
98
20



Название: Три секунды
Оригинальное название: The Informer
Год выпуска: 2019
Жанр: Триллер, криминал, боевик
Режиссер: Андреа Ди Стефано
В ролях: Ана де Армас, Розамунд Пайк, Юэль Киннаман, Клайв Оуэн, Коммон, Рут Брэдли, Сэм Спруэлл, Мартин МакКанн, Артуро Кастро, Насир Джама, Дженна Уиллис

Описание: Три секунды — время полета пули, выпущенной из снайперской винтовки с расстояния 1 500 метров. Именно столько времени остается, чтобы принять решение информатору Федерального Бюро Расследований, оказавшемуся в смертельной ловушке между мафией, полицией и ФБР. На кону — его семья, свобода, жизнь.



Страна: Великобритания
Студия: thefyzz, Thunder Road Pictures, Imagination Park Entertainment
Продолжительность: 01:53:26
Перевод: Дублированный | Онлайн кинотеатр

Формат: MKV
Качество: BDRip-AVC
Видео: MPEG-4 AVC, 1024x428 (2.40:1), 23.976 fps, 2254 Kbps, 0.215 bit/pixel
Аудио: 48 kHz, AC3, 2.0, 192 Kbps | Dub | RUS |
Субтитры: Английские


ОтчетМедиаИнфо
x264 [info]: frame I:1056 Avg QP:15.72 size: 65970
x264 [info]: frame P:32955 Avg QP:19.42 size: 24693
x264 [info]: frame B:129172 Avg QP:20.80 size: 8000
________________________________________________________
General
Unique ID : 232783484770699698445200621737207370349 (0xAF2077E84477C3FBB214D132988B926D)
Complete name : F:The.Informer.2019.BDRip.AVC.ExKinoRay.mkv
Format : Matroska
Format version : Version 2
File size : 1.94 GiB
Duration : 1 h 53 min
Overall bit rate : 2 447 kb/s
Movie name : The Informer 2019 from ExKinoRay
Encoded date : UTC 2020-01-11 13:45:21
Writing application : mkvmerge v5.6.0 ('Kenya Kane') built on May 27 2012 16:44:04
Writing library : libebml v1.2.3 + libmatroska v1.3.0

Video
ID : 1
Format : AVC
Format/Info : Advanced Video Codec
Format profile : High@L4.1
Format settings, CABAC : Yes
Format settings, ReFrames : 12 frames
Codec ID : V_MPEG4/ISO/AVC
Duration : 1 h 53 min
Bit rate : 2 254 kb/s
Width : 1 024 pixels
Height : 428 pixels
Display aspect ratio : 2.40:1
Frame rate mode : Constant
Frame rate : 23.976 (23976/1000) FPS
Color space : YUV
Chroma subsampling : 4:2:0
Bit depth : 8 bits
Scan type : Progressive
Bits/(Pixel*Frame) : 0.215
Stream size : 1.75 GiB (90%)
Title : Enigma
Writing library : x264 core 152 r2851 ba24899
Encoding settings : cabac=1 / ref=12 / deblock=1:-2:-2 / analyse=0x3:0x113 / me=umh / subme=10 / psy=1 / psy_rd=0.98:0.05 / mixed_ref=1 / me_range=32 / chroma_me=1 / trellis=2 / 8x8dct=1 / cqm=0 / deadzone=21,11 / fast_pskip=0 / chroma_qp_offset=-3 / threads=12 / lookahead_threads=3 / sliced_threads=0 / nr=0 / decimate=0 / interlaced=0 / bluray_compat=0 / constrained_intra=0 / bframes=14 / b_pyramid=2 / b_adapt=2 / b_bias=0 / direct=3 / weightb=1 / open_gop=0 / weightp=2 / keyint=240 / keyint_min=23 / scenecut=40 / intra_refresh=0 / rc=2pass / mbtree=0 / bitrate=2254 / ratetol=1.0 / qcomp=0.65 / qpmin=0 / qpmax=51 / qpstep=4 / cplxblur=20.0 / qblur=0.5 / ip_ratio=1.40 / pb_ratio=1.30 / aq=2:0.90
Language : English
Default : Yes
Forced : No
Color range : Limited
Color primaries : BT.709
Transfer characteristics : BT.709
Matrix coefficients : BT.709

Audio
ID : 2
Format : AC-3
Format/Info : Audio Coding 3
Mode extension : CM (complete main)
Format settings, Endianness : Big
Codec ID : A_AC3
Duration : 1 h 53 min
Bit rate mode : Constant
Bit rate : 192 kb/s
Channel(s) : 2 channels
Channel positions : Front: L R
Sampling rate : 48.0 kHz
Frame rate : 31.250 FPS (1536 spf)
Compression mode : Lossy
Stream size : 156 MiB (8%)
Title : iTunes
Language : Russian
Default : Yes
Forced : No

Text
ID : 3
Format : UTF-8
Codec ID : S_TEXT/UTF8
Codec ID/Info : UTF-8 Plain Text
Language : English
Default : No
Forced : No

Menu
00:00:00.000 : :Chapter 01
00:08:34.097 : :Chapter 02
00:17:20.331 : :Chapter 03
00:25:03.085 : :Chapter 04
00:33:03.690 : :Chapter 05
00:42:27.754 : :Chapter 06
00:53:25.953 : :Chapter 07
01:01:33.148 : :Chapter 08
01:09:53.523 : :Chapter 09
01:21:24.046 : :Chapter 10
01:31:34.406 : :Chapter 11
01:41:34.088 : :Chapter 12





Релиз от:

Автор релиза:
 

Вложения

  • 20,4 KB Просмотры: 0
    Личеров 0
    Сидеров 0
    Файлов 1
    Объем 1,9 GB
Ваш e-mail не будет опубликован. Он потребуется для подтверждения Вашего поста.
Оформление текста Нажмите «Ввод», чтобы отправить ответ.

Привет!

Мы группа людей которые решили помочь другим в решении их проблем, а так же пользователям с поиском самых свежих и качественных инфопродуктов. За 4 с небольшим месяца мы создали этот форум на который заходят ежедневно тысячи человек и посещаемость постоянно растёт. Мы создали панель лицензирования для защиты PHP скриптов от воровства и SEO панель для мониторинга наших сайтов и выбора верной стратегии их развития. Мы надеемся что то что мы создали пригодится Вам и возможно Вы поможете нам развиваться и совершенствоваться вместе с Вами.

Статистика форума

Темы
380.770
Сообщения
420.531
Пользователи
51.137
Новый пользователь
Наташ

Приложения форума для iOS и Android


У ркн там нет власти ;)
Приватные разговоры
Помощь Пользователи
    Вы не присоединились ни к одной комнате.