За последнюю неделю опубликовано 62 новых материалов.
Инструкция новичку Путеводитель по форуму Прокси для Telegram Показать подсказки , это бомба!

Скачать Третий лишний / Ted (2012) BDRip 1080p | D, A бесплатно через торрент

  • Поучаствуй (в качестве покупателя) в любых пяти совместных покупках (кроме завершённых и "Моментальных") и получи группу "Новичок" навсегда -> ссылка на раздел
  • Получай до 480 рублей за каждого приглашенного пользователя!
    представляем Вам очередное расширение партнерской программы, подробности описаны тут -> ссылка
  • 90% материалов доступно к скачиванию после простой регистрации!
    Если же ты хочешь скачивать материалы без требования оставлять отзывы то получи группу "Новичок", 10 способов повышения описаны тут -> ссылка
  • К сожалению количество битых ссылок растет и мы уже не можем их оперативно восстанавливать поэтому просим помощи у каждого нашего пользователя.
    С сегодняшнего дня, за каждую восстановленную ссылку мы заплатим Вам.
    Подробнее тут -> ссылка
  • Перенесем твои заслуги с другого ресурса!
    Мы понимаем как сложно прокачивать аккаунты на форумах, вроде раскачал аккаунт, а тут появляется ресурс в 100 раз круче но тоже с системой прокачки и снова качать аккаунт...
    Предлагаем вам перенести Ваши заслуги на другом подобном ресурсе к нам.
    Подробности описаны тут -> ссылка
  • Вы можете получать по 2.5% с каждой покупки и продажи на маркете! Подробности в теме Партнёрская программа
Если Вы не хотите скачивать, Вы всегда можетепосмотретьонлайн, просто нажмите кнопку ниже :

Открыть плеер

Torrent_Bot

Торрент-Бот
Бот форума
4 Окт 2016
92
163
20



Информация о фильме
Название: Третий лишний
Оригинальное название: Ted
Год выхода: 2012
Жанр: фэнтези, комедия
Режиссер: Сет МакФарлейн
В ролях: Марк Уолберг, Мила Кунис, Сет МакФарлейн, Джоэл МакХэйл, Джованни Рибизи, Патрик Варбертон, Мэтт Уолш, Билл Смитрович, Аэдин Минкс, Сэм Дж. Джонс

О фильме: Джон влюблен в красавицу Лори, у него отличная работа и большие планы на будущее. Но в их отношения вмешивается третий, давний друг Джона — Тед. Он отрывается сутки напролет, предпочитает случайные связи и не желает терять друга. Но никто на самом деле не знает на что он способен, ведь Тед — большой плюшевый медведь.



Страна: США
Студия: Bluegrass Films, Fuzzy Door Productions, Universal Pictures
Продолжительность: 01:46:03
Перевод: Профессиональный (дублированный), Авторский (одноголосый, закадровый)

Файл
Качество: BDRip 1080p | AlexKa
Формат: Matroska
Видео: 1920x1040 at 23.976 fps, x264, ~6700 kbps avg
Аудио#1: Russian: 48 kHz, AC3, 3/2 (L,C,R,l,r) + LFE ch, ~640 kbps avg |Дубляж, Blu-ray CEE|
Аудио#2: Russian: 48 kHz, AC3, 3/2 (L,C,R,l,r) + LFE ch, ~640 kbps avg |Авторский, Д.Пучков (2020)|
Аудио#3: English: 48 kHz, AC3, 3/2 (L,C,R,l,r) + LFE ch, ~448 kbps avg
Субтитры: Russian (Forced, Full), English (Full)

***Сохранены оригинальные главы как на Blu-ray
***За перевод Д.Пучкова спасибо: TBiL. Работа со звуком: karasidi12. Присутствует ненормативная лексика!

Знаете ли вы, что...
Отец и сын, сыгранные Джованни Рибизи и Аэдином Минксом, представляются Донни и Робертом. Братьев Марка Уолберга зовут Донни и Роберт.
Первый неанимационный фильм Сета МакФарлейна.
Изначально дата релиза фильма была запланирована на 13 июля 2012 года, но была перенесена на 29 июня — предполагаемую дату выпуска «G.I. Joe: Бросок кобры 2» (2013), которая была изменена на 29 марта 2013 года из-за решения переснять фильм.
Фильм доставлялся в кинотеатры под названием Thunder Buddies.
Для Тары Стронг, озвучивавшей реплику Теда «I love you» («Я тебя люблю»), это первый фильм с живыми актерами с момента ее работы в фильме «Большое путешествие» (1995).
Изначально «Третий лишний» задумывался как анимационный сериал.
Сцена с перечислением женских имен была снята за пару дублей без использования карточек с текстовыми подсказками. Марк Уолберг сам составил список этих имен.
Турнирное положение команд лиги AL East на стене Green Monster стадиона Фенвей Парк указывает на то, что сцена была снята 23 мая 2011 года.
В конце фильма рассказчик говорит, что Сэм Дж. Джонс переехал к Брэндону Руту. Оба актера играли в фильмах роли персонажей, взятых из комиксов: Джонс с его «Флэшем Гордоном» (1980), Рут — с его «Возвращением Супермена» (2006). Были планы на продолжение для обоих фильмов, но от них отказались из-за удручающих кассовых сборов, даже несмотря на теплые отзывы поклонников и критиков.
В одной из сцен Тед упоминает дату 9/11. Марк Уолберг и Сет МакФарлейн едва не оказались на самолетах, которые врезались во Всемирный торговый центр. У Уолберга был забронирован билет на American Airlines Flight 11, но он передумал и решил поехать в Нью-Йорк, а в Калифорнию полететь позже. МакФарлейн должен был попасть на тот же рейс, но опоздал на 10 минут. Он находился в аэропорту, когда увидел, как самолет, на который он опоздал, врезался в северную башню Всемирного торгового центра.
Архивные съемки Теда в программе «Вечернее шоу Джонни Карсона» (1962-1992) в оригинале впервые вышли в эфир 29 февраля 1984 года. Реальным гостем Джонни в тот вечер был Эммануэль Льюис. Об этом можно догадаться, когда Джонни по прибытии Теда говорит: «Я думал, вы будете выше». Тед же ответил: «Это забавно, потому что я думал, что вы, наверно, смешной». По факту Эммануэль ответил: «Я тоже».
Мелодия, играющая на телефоне Джона, когда ему звонит Тед, — главная тема из сериала «Рыцарь дорог» (1982).
Сцена знакомства Джона и Лори в воспоминаниях Джона повторяет сцену из фильма «Аэроплан» (1980).
Человек, который залезает на сцену во время концерта Норы Джонс, — это в реальной жизни Шоун Торнтон, на 2012 год являющийся игроком хоккейного клуба «Бостон Брюинз». Торнтон известен своей жестокостью и хулиганскими выходками, он в команде на первом месте по дракам.
MediaInfo
General
Unique ID : 179908057199710608225203194978825440624 (0x8759080DBEF1C2FEAAA751CDADEC8D70)
Complete name : Ted.2012.BDRip.1080p.2xRus.Eng.mkv
Format : Matroska
Format version : Version 2
File size : 6.23 GiB
Duration : 1 h 46 min
Overall bit rate : 8 413 kb/s
Movie name : Третий лишний / Ted (2012)
Encoded date : UTC 2020-06-03 09:31:34
Writing application : mkvmerge v5.8.0 ('No Sleep / Pillow') built on Sep 2 2012 15:37:04
Writing library : libebml v1.2.3 + libmatroska v1.3.0

Video
ID : 1
Format : AVC
Format/Info : Advanced Video Codec
Format profile : [email protected]
Format settings : CABAC / 4 Ref Frames
Format settings, CABAC : Yes
Format settings, Reference fra : 4 frames
Codec ID : V_MPEG4/ISO/AVC
Duration : 1 h 46 min
Bit rate : 6 690 kb/s
Width : 1 920 pixels
Height : 1 040 pixels
Display aspect ratio : 1.85:1
Frame rate mode : Constant
Frame rate : 23.976 FPS
Color space : YUV
Chroma subsampling : 4:2:0
Bit depth : 8 bits
Scan type : Progressive
Bits/(Pixel*Frame) : 0.140
Stream size : 4.83 GiB (77%)
Writing library : x264 core 128 r2216 198a7ea
Encoding settings : cabac=1 / ref=4 / deblock=1:0:0 / analyse=0x3:0x133 / me=umh / subme=10 / psy=1 / psy_rd=1.00:0.00 / mixed_ref=1 / me_range=32 / chroma_me=1 / trellis=2 / 8x8dct=1 / cqm=0 / deadzone=21,11 / fast_pskip=0 / chroma_qp_offset=-2 / threads=12 / lookahead_threads=2 / sliced_threads=0 / nr=0 / decimate=0 / interlaced=0 / bluray_compat=0 / constrained_intra=0 / bframes=5 / b_pyramid=2 / b_adapt=2 / b_bias=0 / direct=3 / weightb=1 / open_gop=0 / weightp=2 / keyint=240 / keyint_min=23 / scenecut=40 / intra_refresh=0 / rc=2pass / mbtree=0 / bitrate=6690 / ratetol=1.0 / qcomp=0.60 / qpmin=0 / qpmax=69 / qpstep=4 / cplxblur=20.0 / qblur=0.5 / ip_ratio=1.40 / pb_ratio=1.30 / aq=1:0.80
Language : English
Default : Yes
Forced : No

Audio #1
ID : 2
Format : AC-3
Format/Info : Audio Coding 3
Commercial name : Dolby Digital
Codec ID : A_AC3
Duration : 1 h 46 min
Bit rate mode : Constant
Bit rate : 640 kb/s
Channel(s) : 6 channels
Channel layout : L R C LFE Ls Rs
Sampling rate : 48.0 kHz
Frame rate : 31.250 FPS (1536 SPF)
Bit depth : 16 bits
Compression mode : Lossy
Stream size : 485 MiB (8%)
Title : Дубляж | Blu-ray CEE
Language : Russian
Service kind : Complete Main
Default : Yes
Forced : No

Audio #2
ID : 3
Format : AC-3
Format/Info : Audio Coding 3
Commercial name : Dolby Digital
Codec ID : A_AC3
Duration : 1 h 46 min
Bit rate mode : Constant
Bit rate : 640 kb/s
Channel(s) : 6 channels
Channel layout : L R C LFE Ls Rs
Sampling rate : 48.0 kHz
Frame rate : 31.250 FPS (1536 SPF)
Bit depth : 16 bits
Compression mode : Lossy
Stream size : 485 MiB (8%)
Title : Авторский | Д.Пучков
Language : Russian
Service kind : Complete Main
Default : No
Forced : No

Audio #3
ID : 4
Format : AC-3
Format/Info : Audio Coding 3
Commercial name : Dolby Digital
Codec ID : A_AC3
Duration : 1 h 46 min
Bit rate mode : Constant
Bit rate : 448 kb/s
Channel(s) : 6 channels
Channel layout : L R C LFE Ls Rs
Sampling rate : 48.0 kHz
Frame rate : 31.250 FPS (1536 SPF)
Bit depth : 16 bits
Compression mode : Lossy
Stream size : 340 MiB (5%)
Language : English
Service kind : Complete Main
Default : No
Forced : No

Text #1
ID : 5
Format : UTF-8
Codec ID : S_TEXT/UTF8
Codec ID/Info : UTF-8 Plain Text
Title : Forced
Language : Russian
Default : Yes
Forced : No

Text #2
ID : 6
Format : UTF-8
Codec ID : S_TEXT/UTF8
Codec ID/Info : UTF-8 Plain Text
Title : Full
Language : Russian
Default : No
Forced : No

Text #3
ID : 7
Format : UTF-8
Codec ID : S_TEXT/UTF8
Codec ID/Info : UTF-8 Plain Text
Title : Full
Language : English
Default : No
Forced : No

Menu
00:00:00.000 : :Chapter 01
00:04:05.912 : :Chapter 02
00:10:11.819 : :Chapter 03
00:15:25.132 : :Chapter 04
00:19:31.545 : :Chapter 05
00:25:47.879 : :Chapter 06
00:30:48.972 : :Chapter 07
00:34:31.194 : :Chapter 08
00:41:05.045 : :Chapter 09
00:47:41.692 : :Chapter 10
00:52:33.942 : :Chapter 11
00:58:44.395 : :Chapter 12
01:03:42.360 : :Chapter 13
01:08:20.638 : :Chapter 14
01:13:04.421 : :Chapter 15
01:17:35.025 : :Chapter 16
01:24:12.630 : :Chapter 17
01:31:35.490 : :Chapter 18
01:35:17.670 : :Chapter 19
01:40:34.737 : :Chapter 20
01:46:03.106 : :Chapter 21
Скриншоты
 

Вложения

  • 16,5 KB Просмотры: 0
    Личеров 0
    Сидеров 0
    Файлов 1
    Объем 6,2 GB

Привет!

Мы группа людей которые решили помочь другим в решении их проблем, а так же пользователям с поиском самых свежих и качественных инфопродуктов. За 4 с небольшим месяца мы создали этот форум на который заходят ежедневно тысячи человек и посещаемость постоянно растёт. Мы создали панель лицензирования для защиты PHP скриптов от воровства и SEO панель для мониторинга наших сайтов и выбора верной стратегии их развития. Мы надеемся что то что мы создали пригодится Вам и возможно Вы поможете нам развиваться и совершенствоваться вместе с Вами.

Статистика форума

Темы
406.697
Сообщения
465.154
Пользователи
84.765
Новый пользователь
Джалиля

Приложения форума для iOS и Android


У ркн там нет власти ;)
Приватные разговоры
Помощь Пользователи
    Вы не присоединились ни к одной комнате.