За последнюю неделю опубликовано 35 новых материалов.
Инструкция новичку Путеводитель по форуму Прокси для Telegram Показать подсказки , это бомба!

Скачать курс Тренинг "Как заработать на посуточной аренде" бесплатно через торрент, отзывы к курсу

  • Поучаствуй (в качестве покупателя) в любых пяти совместных покупках (кроме завершённых и "Моментальных") и получи группу "Новичок" навсегда -> ссылка на раздел
  • Получай до 480 рублей за каждого приглашенного пользователя!
    представляем Вам очередное расширение партнерской программы, подробности описаны тут -> ссылка
  • 90% материалов доступно к скачиванию после простой регистрации!
    Если же ты хочешь скачивать материалы без требования оставлять отзывы то получи группу "Новичок", 10 способов повышения описаны тут -> ссылка
  • К сожалению количество битых ссылок растет и мы уже не можем их оперативно восстанавливать поэтому просим помощи у каждого нашего пользователя.
    С сегодняшнего дня, за каждую восстановленную ссылку мы заплатим Вам.
    Подробнее тут -> ссылка
  • Перенесем твои заслуги с другого ресурса!
    Мы понимаем как сложно прокачивать аккаунты на форумах, вроде раскачал аккаунт, а тут появляется ресурс в 100 раз круче но тоже с системой прокачки и снова качать аккаунт...
    Предлагаем вам перенести Ваши заслуги на другом подобном ресурсе к нам.
    Подробности описаны тут -> ссылка
  • Вы можете получать по 2.5% с каждой покупки и продажи на маркете! Подробности в теме Партнёрская программа

nychkos2

Прохожий
Read Only
24 Ноя 2017
3
1
0
41
Тематика: Недвижимость
Тип раздаваемого материала: Видеоуроки
Год выпуска: 2017
Язык: Русский
Перевод: Не требуется
Описание:
«Нетипичная посуточная аренда» - это пошаговая стратегия в виде тренингов, которая сделает доступным подобный бизнес даже для тех, кто абсолютно ничего не знал об этом до этой минуты. Структурированная информация, поданная простым и доступным языком, готовое решение, которое позволит вам стать богатым и успешным.
Что будет в программе тренингов:
• Работа с собственниками. Вы обучитесь навыку свободного общения с собственниками, сможете экономить в месяц до 10 000 рублей при аренде квартиры, научитесь во время кризиса находить самые выгодные для работы квартиры.
• Работа с конкурентами. Вы узнаете, как можно зарабатывать на конкурентах и научитесь без затруднений с ними общаться.
• Автоматизация бизнеса. Доведёте свой бизнес до автоматизма и сможете отдыхать, не думая о работе. В это время ваш бизнес продолжать работать и приносить доход.
• Дополнительный сервис. Сможете заработать до 10 000 рублей на всевозможных нестандартных услугах.
• Работа с горничными. Вы поймёте, на что нужно обращать внимание при выборе горничных и как контролировать их работу. Узнаете, как сэкономить на зарплате до 15 000 рублей.
• Работа с рекламой. Благодаря грамотно составленной отлаженной рекламе вы увеличите свой доход.
• Учёт и анализ. Сделав его, вы увеличите оборот и будете понимать, от каких квартир стоит отказаться в пользу более выгодных.
• Отчётные документы. Вы будете уметь вести учётные документы и выписывать командировочные документы.

Продажник: Официальный сайт

Общее
Полное имя 12 поток День седьмой.mp4
Формат : MPEG-4
Профиль формата : Base Media / Version 2
Идентификатор кодека : mp42 (M4V /mp42/isom)
Размер файла : 48,4 Мбайт
Продолжительность : 1 ч. 44 м.
Общий поток : 65,0 Кбит/сек
Дата кодирования : UTC 2017-11-15 11:46:22
Дата пометки : UTC 2017-11-15 11:46:22

Видео
Идентификатор : 1
Формат : AVC
Формат/Информация : Advanced Video Codec
Профиль формата : [email protected]
Настройки формата : CABAC / 4 Ref Frames
Параметр CABAC формата : Да
Параметр RefFrames формата : 4 кадра
Идентификатор кодека : avc1
Идентификатор кодека/Информация : Advanced Video Coding
Продолжительность : 1 ч. 44 м.
Продолжительность оригинала : 1 ч. 44 м.
Битрейт : 46,4 Кбит/сек
Ширина : 1280 пикселей
Высота : 720 пикселей
Соотношение сторон : 16:9
Режим частоты кадров : Постоянный
Частота кадров : 30,000 кадров/сек
Стандарт вещания : NTSC
Цветовое пространство : YUV
Субдискретизация насыщенности : 4:2:0
Битовая глубина : 8 бит
Тип развёртки : Прогрессивная
Бит/(Пиксели*Кадры) : 0.002
Размер потока : 34,6 Мбайт (71%)
Размер потока оригинала : 41,0 Мбайт (85%)
Язык : English
Дата кодирования : UTC 2017-11-15 11:46:22
Дата пометки : UTC 2017-11-15 11:46:22
Цветовой диапазон : Limited
Основные цвета : BT.709
Характеристики трансфера : BT.709
Коэффициенты матрицы : BT.709
mdhd_Duration : 6242746

Аудио
Идентификатор : 2
Формат : AAC
Формат/Информация : Advanced Audio Codec
Профиль формата : LC
Идентификатор кодека : mp4a-40-2
Продолжительность : 1 ч. 44 м.
Продолжительность оригинала : 1 ч. 44 м.
Вид битрейта : Постоянный
Битрейт : 7172 бит/сек
Каналы : 2 канала
Расположение каналов : Front: L R
Частота : 44,1 КГц
Частота кадров : 43,066 кадра/сек (1024 SPF)
Метод сжатия : С потерями
Размер потока : 5,35 Мбайт (11%)
Размер потока оригинала : 5,35 Мбайт (11%)
Язык : English
Дата кодирования : UTC 2017-11-15 11:46:22
Дата пометки : UTC 2017-11-15 11:46:22
mdhd_Duration : 6260673

Общее
Полное имя 2 занятие. Работа с конкурентами.mp4
Формат : MPEG-4
Профиль формата : Base Media / Version 2
Идентификатор кодека : mp42 (isom/mp42)
Размер файла : 181 Мбайт
Продолжительность : 1 ч. 42 м.
Режим общего битрейта : Переменный
Общий поток : 248 Кбит/сек
Исполнитель : Иван Решетар
Дата кодирования : UTC 2017-11-15 08:31:02
Дата пометки : UTC 2017-11-15 08:31:02

Видео
Идентификатор : 1
Формат : AVC
Формат/Информация : Advanced Video Codec
Профиль формата : [email protected]
Настройки формата : CABAC / 4 Ref Frames
Параметр CABAC формата : Да
Параметр RefFrames формата : 4 кадра
Параметр GOP формата : M=1, N=75
Идентификатор кодека : avc1
Идентификатор кодека/Информация : Advanced Video Coding
Продолжительность : 1 ч. 42 м.
Вид битрейта : Переменный
Битрейт : 56,2 Кбит/сек
Максимальный битрейт : 12,3 Мбит/сек
Ширина : 640 пикселей
Высота : 360 пикселей
Соотношение сторон : 16:9
Режим частоты кадров : Постоянный
Частота кадров : 15,000 кадров/сек
Цветовое пространство : YUV
Субдискретизация насыщенности : 4:2:0
Битовая глубина : 8 бит
Тип развёртки : Прогрессивная
Бит/(Пиксели*Кадры) : 0.016
Размер потока : 41,0 Мбайт (23%)
Язык : English
Дата кодирования : UTC 2017-11-15 08:31:03
Дата пометки : UTC 2017-11-15 08:31:03
Цветовой диапазон : Limited

Аудио
Идентификатор : 2
Формат : AAC
Формат/Информация : Advanced Audio Codec
Профиль формата : LC
Идентификатор кодека : mp4a-40-2
Продолжительность : 1 ч. 42 м.
Продолжительность оригинала : 1 ч. 42 м.
Вид битрейта : Переменный
Битрейт : 192 Кбит/сек
Максимальный битрейт : 317 Кбит/сек
Каналы : 2 канала
Расположение каналов : Front: L R
Частота : 44,1 КГц
Частота кадров : 43,066 кадра/сек (1024 SPF)
Метод сжатия : С потерями
Размер потока : 139 Мбайт (77%)
Размер потока оригинала : 139 Мбайт (77%)
Язык : English
Дата кодирования : UTC 2017-11-15 08:31:03
Дата пометки : UTC 2017-11-15 08:31:03

Общее
Полное имя 7 занятие. Организация работы горничных. Химия и инвентарь.mp4
Формат : MPEG-4
Профиль формата : Base Media / Version 2
Идентификатор кодека : mp42 (M4V /mp42/isom)
Размер файла : 22,9 Мбайт
Продолжительность : 1 ч. 26 м.
Общий поток : 37,1 Кбит/сек
Дата кодирования : UTC 2017-11-15 09:13:16
Дата пометки : UTC 2017-11-15 09:13:16

Видео
Идентификатор : 1
Формат : AVC
Формат/Информация : Advanced Video Codec
Профиль формата : [email protected]
Настройки формата : CABAC / 4 Ref Frames
Параметр CABAC формата : Да
Параметр RefFrames формата : 4 кадра
Параметр GOP формата : M=1, N=125
Идентификатор кодека : avc1
Идентификатор кодека/Информация : Advanced Video Coding
Продолжительность : 1 ч. 26 м.
Продолжительность оригинала : 1 ч. 26 м.
Битрейт : 21,3 Кбит/сек
Ширина : 480 пикселей
Высота : 360 пикселей
Соотношение сторон : 4:3
Режим частоты кадров : Постоянный
Частота кадров : 25,000 кадров/сек
Стандарт вещания : PAL
Цветовое пространство : YUV
Субдискретизация насыщенности : 4:2:0
Битовая глубина : 8 бит
Тип развёртки : Прогрессивная
Бит/(Пиксели*Кадры) : 0.005
Размер потока : 13,1 Мбайт (57%)
Размер потока оригинала : 13,1 Мбайт (57%)
Язык : English
Дата кодирования : UTC 2017-11-15 09:13:16
Дата пометки : UTC 2017-11-15 09:13:16
Цветовой диапазон : Limited
Основные цвета : BT.601 PAL
Характеристики трансфера : BT.470 System B, BT.470 System G
Коэффициенты матрицы : BT.470 System B, BT.470 System G
mdhd_Duration : 5178968

Аудио
Идентификатор : 2
Формат : AAC
Формат/Информация : Advanced Audio Codec
Профиль формата : LC
Идентификатор кодека : mp4a-40-2
Продолжительность : 1 ч. 26 м.
Продолжительность оригинала : 1 ч. 26 м.
Вид битрейта : Постоянный
Битрейт : 13,4 Кбит/сек
Каналы : 2 канала
Расположение каналов : Front: L R
Частота : 44,1 КГц
Частота кадров : 43,066 кадра/сек (1024 SPF)
Метод сжатия : С потерями
Размер потока : 8,28 Мбайт (36%)
Размер потока оригинала : 8,28 Мбайт (36%)
Язык : English
Дата кодирования : UTC 2017-11-15 09:13:16
Дата пометки : UTC 2017-11-15 09:13:16
mdhd_Duration : 5181189

Общее
Полное имя 9 занятие. Горничные. Организация работы.mp4
Формат : MPEG-4
Профиль формата : Base Media / Version 2
Идентификатор кодека : mp42 (M4V /mp42/isom)
Размер файла : 67,7 Мбайт
Продолжительность : 2 ч. 2 м.
Общий поток : 77,4 Кбит/сек
Дата кодирования : UTC 2017-11-15 09:55:51
Дата пометки : UTC 2017-11-15 09:55:51

Видео
Идентификатор : 1
Формат : AVC
Формат/Информация : Advanced Video Codec
Профиль формата : [email protected]
Настройки формата : CABAC / 4 Ref Frames
Параметр CABAC формата : Да
Параметр RefFrames формата : 4 кадра
Идентификатор кодека : avc1
Идентификатор кодека/Информация : Advanced Video Coding
Продолжительность : 2 ч. 2 м.
Продолжительность оригинала : 2 ч. 2 м.
Битрейт : 52,7 Кбит/сек
Ширина : 640 пикселей
Высота : 356 пикселей
Соотношение сторон : 16:9
Режим частоты кадров : Постоянный
Частота кадров : 30,000 кадров/сек
Стандарт вещания : NTSC
Цветовое пространство : YUV
Субдискретизация насыщенности : 4:2:0
Битовая глубина : 8 бит
Тип развёртки : Прогрессивная
Бит/(Пиксели*Кадры) : 0.008
Размер потока : 46,1 Мбайт (68%)
Размер потока оригинала : 54,1 Мбайт (80%)
Язык : English
Дата кодирования : UTC 2017-11-15 09:55:51
Дата пометки : UTC 2017-11-15 09:55:51
Цветовой диапазон : Limited
Основные цвета : BT.601 NTSC
Характеристики трансфера : BT.601
Коэффициенты матрицы : BT.601
mdhd_Duration : 7328754

Аудио
Идентификатор : 2
Формат : AAC
Формат/Информация : Advanced Audio Codec
Профиль формата : LC
Идентификатор кодека : mp4a-40-2
Продолжительность : 2 ч. 2 м.
Продолжительность оригинала : 2 ч. 2 м.
Вид битрейта : Постоянный
Битрейт : 12,8 Кбит/сек
Каналы : 2 канала
Расположение каналов : Front: L R
Частота : 44,1 КГц
Частота кадров : 43,066 кадра/сек (1024 SPF)
Метод сжатия : С потерями
Размер потока : 11,3 Мбайт (17%)
Размер потока оригинала : 11,3 Мбайт (17%)
Язык : English
Дата кодирования : UTC 2017-11-15 09:55:51
Дата пометки : UTC 2017-11-15 09:55:51
mdhd_Duration : 7361158


Общее
Полное имя Мастер - класс Ольга Лебедева Бухгалтерский учёт и налогообложение.mp4
Формат : MPEG-4
Профиль формата : Base Media / Version 2
Идентификатор кодека : mp42 (isom/mp42)
Размер файла : 139 Мбайт
Продолжительность : 1 ч. 28 м.
Режим общего битрейта : Переменный
Общий поток : 220 Кбит/сек
Дата кодирования : UTC 2017-11-17 13:40:39
Дата пометки : UTC 2017-11-17 13:40:39

Видео
Идентификатор : 1
Формат : AVC
Формат/Информация : Advanced Video Codec
Профиль формата : [email protected]
Настройки формата : 1 Ref Frames
Параметр CABAC формата : Нет
Параметр RefFrames формата : 1 кадр
Идентификатор кодека : avc1
Идентификатор кодека/Информация : Advanced Video Coding
Продолжительность : 1 ч. 28 м.
Битрейт : 91,9 Кбит/сек
Ширина : 1280 пикселей
Высота : 720 пикселей
Соотношение сторон : 16:9
Режим частоты кадров : Постоянный
Частота кадров : 30,000 кадров/сек
Стандарт вещания : NTSC
Цветовое пространство : YUV
Субдискретизация насыщенности : 4:2:0
Битовая глубина : 8 бит
Тип развёртки : Прогрессивная
Бит/(Пиксели*Кадры) : 0.003
Размер потока : 58,0 Мбайт (42%)
Язык : English
Дата кодирования : UTC 2017-11-17 13:40:40
Дата пометки : UTC 2017-11-17 13:40:40
Цветовой диапазон : Limited

Аудио
Идентификатор : 2
Формат : AAC
Формат/Информация : Advanced Audio Codec
Профиль формата : LC
Идентификатор кодека : mp4a-40-2
Продолжительность : 1 ч. 28 м.
Продолжительность оригинала : 1 ч. 28 м.
Вид битрейта : Переменный
Битрейт : 126 Кбит/сек
Максимальный битрейт : 352 Кбит/сек
Каналы : 2 канала
Расположение каналов : Front: L R
Частота : 44,1 КГц
Частота кадров : 43,066 кадра/сек (1024 SPF)
Метод сжатия : С потерями
Размер потока : 79,3 Мбайт (57%)
Размер потока оригинала : 79,3 Мбайт (57%)
Язык : English
Дата кодирования : UTC 2017-11-17 13:40:40
Дата пометки : UTC 2017-11-17 13:40:40

Общее
Полное имя Посуточная аренда. Отчётные документы и их заполнение.mp4
Формат : MPEG-4
Профиль формата : Base Media / Version 2
Идентификатор кодека : mp42 (M4V /mp42/isom)
Размер файла : 21,3 Мбайт
Продолжительность : 1 ч. 18 м.
Общий поток : 38,2 Кбит/сек
Дата кодирования : UTC 2017-11-15 19:03:04
Дата пометки : UTC 2017-11-15 19:03:04

Видео
Идентификатор : 1
Формат : AVC
Формат/Информация : Advanced Video Codec
Профиль формата : [email protected]
Настройки формата : CABAC / 4 Ref Frames
Параметр CABAC формата : Да
Параметр RefFrames формата : 4 кадра
Параметр GOP формата : M=1, N=125
Идентификатор кодека : avc1
Идентификатор кодека/Информация : Advanced Video Coding
Продолжительность : 1 ч. 18 м.
Продолжительность оригинала : 1 ч. 18 м.
Битрейт : 15,8 Кбит/сек
Ширина : 640 пикселей
Высота : 356 пикселей
Соотношение сторон : 16:9
Режим частоты кадров : Постоянный
Частота кадров : 25,000 кадров/сек
Стандарт вещания : PAL
Цветовое пространство : YUV
Субдискретизация насыщенности : 4:2:0
Битовая глубина : 8 бит
Тип развёртки : Прогрессивная
Бит/(Пиксели*Кадры) : 0.003
Размер потока : 8,84 Мбайт (41%)
Размер потока оригинала : 13,3 Мбайт (62%)
Язык : English
Дата кодирования : UTC 2017-11-15 19:03:04
Дата пометки : UTC 2017-11-15 19:03:04
Цветовой диапазон : Limited
Основные цвета : BT.601 PAL
Характеристики трансфера : BT.470 System B, BT.470 System G
Коэффициенты матрицы : BT.470 System B, BT.470 System G
mdhd_Duration : 4685527

Аудио
Идентификатор : 2
Формат : AAC
Формат/Информация : Advanced Audio Codec
Профиль формата : LC
Идентификатор кодека : mp4a-40-2
Продолжительность : 1 ч. 18 м.
Продолжительность оригинала : 1 ч. 18 м.
Вид битрейта : Постоянный
Битрейт : 12,0 Кбит/сек
Каналы : 2 канала
Расположение каналов : Front: L R
Частота : 44,1 КГц
Частота кадров : 43,066 кадра/сек (1024 SPF)
Метод сжатия : С потерями
Размер потока : 6,72 Мбайт (31%)
Размер потока оригинала : 6,72 Мбайт (31%)
Язык : English
Дата кодирования : UTC 2017-11-15 19:03:04
Дата пометки : UTC 2017-11-15 19:03:04
mdhd_Duration : 4683634

Общее
Полное имя Тренинг 12 поток Автоматизация бизнеса.mp4
Формат : MPEG-4
Профиль формата : Base Media / Version 2
Идентификатор кодека : mp42 (isom/mp42)
Размер файла : 152 Мбайт
Продолжительность : 1 ч. 56 м.
Режим общего битрейта : Переменный
Общий поток : 184 Кбит/сек
Дата кодирования : UTC 2017-11-18 09:15:52
Дата пометки : UTC 2017-11-18 09:15:52

Видео
Идентификатор : 1
Формат : AVC
Формат/Информация : Advanced Video Codec
Профиль формата : [email protected]
Настройки формата : 1 Ref Frames
Параметр CABAC формата : Нет
Параметр RefFrames формата : 1 кадр
Идентификатор кодека : avc1
Идентификатор кодека/Информация : Advanced Video Coding
Продолжительность : 1 ч. 56 м.
Битрейт : 55,4 Кбит/сек
Ширина : 1280 пикселей
Высота : 720 пикселей
Соотношение сторон : 16:9
Режим частоты кадров : Постоянный
Частота кадров : 30,000 кадров/сек
Стандарт вещания : NTSC
Цветовое пространство : YUV
Субдискретизация насыщенности : 4:2:0
Битовая глубина : 8 бит
Тип развёртки : Прогрессивная
Бит/(Пиксели*Кадры) : 0.002
Размер потока : 45,9 Мбайт (30%)
Язык : English
Дата кодирования : UTC 2017-11-18 09:15:53
Дата пометки : UTC 2017-11-18 09:15:53
Цветовой диапазон : Limited

Аудио
Идентификатор : 2
Формат : AAC
Формат/Информация : Advanced Audio Codec
Профиль формата : LC
Идентификатор кодека : mp4a-40-2
Продолжительность : 1 ч. 56 м.
Вид битрейта : Переменный
Битрейт : 126 Кбит/сек
Максимальный битрейт : 257 Кбит/сек
Каналы : 2 канала
Расположение каналов : Front: L R
Частота : 44,1 КГц
Частота кадров : 43,066 кадра/сек (1024 SPF)
Метод сжатия : С потерями
Размер потока : 104 Мбайт (68%)
Язык : English
Дата кодирования : UTC 2017-11-18 09:15:53
Дата пометки : UTC 2017-11-18 09:15:53

Общее
Полное имя Тренинг 12 поток День Восьмой.mp4
Формат : MPEG-4
Профиль формата : Base Media / Version 2
Идентификатор кодека : mp42 (isom/mp42)
Размер файла : 185 Мбайт
Продолжительность : 1 ч. 54 м.
Режим общего битрейта : Переменный
Общий поток : 226 Кбит/сек
Дата кодирования : UTC 2017-11-17 14:57:22
Дата пометки : UTC 2017-11-17 14:57:22

Видео
Идентификатор : 1
Формат : AVC
Формат/Информация : Advanced Video Codec
Профиль формата : [email protected]
Настройки формата : 1 Ref Frames
Параметр CABAC формата : Нет
Параметр RefFrames формата : 1 кадр
Идентификатор кодека : avc1
Идентификатор кодека/Информация : Advanced Video Coding
Продолжительность : 1 ч. 54 м.
Битрейт : 97,5 Кбит/сек
Ширина : 1280 пикселей
Высота : 720 пикселей
Соотношение сторон : 16:9
Режим частоты кадров : Постоянный
Частота кадров : 30,000 кадров/сек
Стандарт вещания : NTSC
Цветовое пространство : YUV
Субдискретизация насыщенности : 4:2:0
Битовая глубина : 8 бит
Тип развёртки : Прогрессивная
Бит/(Пиксели*Кадры) : 0.004
Размер потока : 79,9 Мбайт (43%)
Язык : English
Дата кодирования : UTC 2017-11-17 14:57:22
Дата пометки : UTC 2017-11-17 14:57:22
Цветовой диапазон : Limited

Аудио
Идентификатор : 2
Формат : AAC
Формат/Информация : Advanced Audio Codec
Профиль формата : LC
Идентификатор кодека : mp4a-40-2
Продолжительность : 1 ч. 54 м.
Вид битрейта : Переменный
Битрейт : 126 Кбит/сек
Максимальный битрейт : 253 Кбит/сек
Каналы : 2 канала
Расположение каналов : Front: L R
Частота : 44,1 КГц
Частота кадров : 43,066 кадра/сек (1024 SPF)
Метод сжатия : С потерями
Размер потока : 103 Мбайт (56%)
Язык : English
Дата кодирования : UTC 2017-11-17 14:57:22
Дата пометки : UTC 2017-11-17 14:57:22

Общее
Полное имя Тренинг 12 поток День второй.mp4
Формат : MPEG-4
Профиль формата : Base Media / Version 2
Идентификатор кодека : mp42 (isom/mp42)
Размер файла : 573 Мбайт
Продолжительность : 1 ч. 51 м.
Режим общего битрейта : Переменный
Общий поток : 717 Кбит/сек
Дата кодирования : UTC 2017-11-18 10:15:13
Дата пометки : UTC 2017-11-18 10:15:13

Видео
Идентификатор : 1
Формат : AVC
Формат/Информация : Advanced Video Codec
Профиль формата : [email protected]
Настройки формата : 1 Ref Frames
Параметр CABAC формата : Нет
Параметр RefFrames формата : 1 кадр
Идентификатор кодека : avc1
Идентификатор кодека/Информация : Advanced Video Coding
Продолжительность : 1 ч. 51 м.
Битрейт : 589 Кбит/сек
Ширина : 1280 пикселей
Высота : 720 пикселей
Соотношение сторон : 16:9
Режим частоты кадров : Постоянный
Частота кадров : 30,000 кадров/сек
Стандарт вещания : NTSC
Цветовое пространство : YUV
Субдискретизация насыщенности : 4:2:0
Битовая глубина : 8 бит
Тип развёртки : Прогрессивная
Бит/(Пиксели*Кадры) : 0.021
Размер потока : 470 Мбайт (82%)
Язык : English
Дата кодирования : UTC 2017-11-18 10:15:14
Дата пометки : UTC 2017-11-18 10:15:14
Цветовой диапазон : Limited

Аудио
Идентификатор : 2
Формат : AAC
Формат/Информация : Advanced Audio Codec
Профиль формата : LC
Идентификатор кодека : mp4a-40-2
Продолжительность : 1 ч. 51 м.
Вид битрейта : Переменный
Битрейт : 126 Кбит/сек
Максимальный битрейт : 288 Кбит/сек
Каналы : 2 канала
Расположение каналов : Front: L R
Частота : 44,1 КГц
Частота кадров : 43,066 кадра/сек (1024 SPF)
Метод сжатия : С потерями
Размер потока : 100 Мбайт (18%)
Язык : English
Дата кодирования : UTC 2017-11-18 10:15:14
Дата пометки : UTC 2017-11-18 10:15:14

Общее
Полное имя Тренинг 12 поток День первый.mp4
Формат : MPEG-4
Профиль формата : Base Media / Version 2
Идентификатор кодека : mp42 (isom/mp42)
Размер файла : 595 Мбайт
Продолжительность : 2 ч. 25 м.
Режим общего битрейта : Переменный
Общий поток : 571 Кбит/сек
Дата кодирования : UTC 2017-11-18 11:12:54
Дата пометки : UTC 2017-11-18 11:12:54

Видео
Идентификатор : 1
Формат : AVC
Формат/Информация : Advanced Video Codec
Профиль формата : [email protected]
Настройки формата : 1 Ref Frames
Параметр CABAC формата : Нет
Параметр RefFrames формата : 1 кадр
Идентификатор кодека : avc1
Идентификатор кодека/Информация : Advanced Video Coding
Продолжительность : 2 ч. 25 м.
Битрейт : 442 Кбит/сек
Ширина : 1280 пикселей
Высота : 720 пикселей
Соотношение сторон : 16:9
Режим частоты кадров : Постоянный
Частота кадров : 30,000 кадров/сек
Стандарт вещания : NTSC
Цветовое пространство : YUV
Субдискретизация насыщенности : 4:2:0
Битовая глубина : 8 бит
Тип развёртки : Прогрессивная
Бит/(Пиксели*Кадры) : 0.016
Размер потока : 461 Мбайт (77%)
Язык : English
Дата кодирования : UTC 2017-11-18 11:12:54
Дата пометки : UTC 2017-11-18 11:12:54
Цветовой диапазон : Limited

Аудио
Идентификатор : 2
Формат : AAC
Формат/Информация : Advanced Audio Codec
Профиль формата : LC
Идентификатор кодека : mp4a-40-2
Продолжительность : 2 ч. 25 м.
Вид битрейта : Переменный
Битрейт : 126 Кбит/сек
Максимальный битрейт : 267 Кбит/сек
Каналы : 2 канала
Расположение каналов : Front: L R
Частота : 44,1 КГц
Частота кадров : 43,066 кадра/сек (1024 SPF)
Метод сжатия : С потерями
Размер потока : 131 Мбайт (22%)
Язык : English
Дата кодирования : UTC 2017-11-18 11:12:54
Дата пометки : UTC 2017-11-18 11:12:54

Общее
Полное имя Тренинг 12 поток День пятый.mp4
Формат : MPEG-4
Профиль формата : Base Media / Version 2
Идентификатор кодека : mp42 (isom/mp42)
Размер файла : 608 Мбайт
Продолжительность : 2 ч. 23 м.
Режим общего битрейта : Переменный
Общий поток : 593 Кбит/сек
Дата кодирования : UTC 2017-11-19 08:37:01
Дата пометки : UTC 2017-11-19 08:37:01

Видео
Идентификатор : 1
Формат : AVC
Формат/Информация : Advanced Video Codec
Профиль формата : [email protected]
Настройки формата : 1 Ref Frames
Параметр CABAC формата : Нет
Параметр RefFrames формата : 1 кадр
Идентификатор кодека : avc1
Идентификатор кодека/Информация : Advanced Video Coding
Продолжительность : 2 ч. 23 м.
Битрейт : 465 Кбит/сек
Ширина : 1280 пикселей
Высота : 720 пикселей
Соотношение сторон : 16:9
Режим частоты кадров : Постоянный
Частота кадров : 30,000 кадров/сек
Стандарт вещания : NTSC
Цветовое пространство : YUV
Субдискретизация насыщенности : 4:2:0
Битовая глубина : 8 бит
Тип развёртки : Прогрессивная
Бит/(Пиксели*Кадры) : 0.017
Размер потока : 476 Мбайт (78%)
Язык : English
Дата кодирования : UTC 2017-11-19 08:37:01
Дата пометки : UTC 2017-11-19 08:37:01
Цветовой диапазон : Limited

Аудио
Идентификатор : 2
Формат : AAC
Формат/Информация : Advanced Audio Codec
Профиль формата : LC
Идентификатор кодека : mp4a-40-2
Продолжительность : 2 ч. 23 м.
Вид битрейта : Переменный
Битрейт : 126 Кбит/сек
Максимальный битрейт : 263 Кбит/сек
Каналы : 2 канала
Расположение каналов : Front: L R
Частота : 44,1 КГц
Частота кадров : 43,066 кадра/сек (1024 SPF)
Метод сжатия : С потерями
Размер потока : 129 Мбайт (21%)
Язык : English
Дата кодирования : UTC 2017-11-19 08:37:01
Дата пометки : UTC 2017-11-19 08:37:01

Общее
Полное имя Тренинг 12 поток День третий Вилка цен.mp4
Формат : MPEG-4
Профиль формата : Base Media / Version 2
Идентификатор кодека : mp42 (isom/mp42)
Размер файла : 368 Мбайт
Продолжительность : 1 ч. 54 м.
Режим общего битрейта : Переменный
Общий поток : 450 Кбит/сек
Дата кодирования : UTC 2017-11-20 16:57:48
Дата пометки : UTC 2017-11-20 16:57:48

Видео
Идентификатор : 1
Формат : AVC
Формат/Информация : Advanced Video Codec
Профиль формата : [email protected]
Настройки формата : 3 Ref Frames
Параметр CABAC формата : Нет
Параметр RefFrames формата : 3 кадра
Идентификатор кодека : avc1
Идентификатор кодека/Информация : Advanced Video Coding
Продолжительность : 1 ч. 54 м.
Битрейт : 322 Кбит/сек
Ширина : 1280 пикселей
Высота : 720 пикселей
Соотношение сторон : 16:9
Режим частоты кадров : Постоянный
Частота кадров : 30,000 кадров/сек
Стандарт вещания : NTSC
Цветовое пространство : YUV
Субдискретизация насыщенности : 4:2:0
Битовая глубина : 8 бит
Тип развёртки : Прогрессивная
Бит/(Пиксели*Кадры) : 0.012
Размер потока : 263 Мбайт (71%)
Язык : English
Дата кодирования : UTC 2017-11-20 16:57:50
Дата пометки : UTC 2017-11-20 16:57:50
Цветовой диапазон : Limited

Аудио
Идентификатор : 2
Формат : AAC
Формат/Информация : Advanced Audio Codec
Профиль формата : LC
Идентификатор кодека : mp4a-40-2
Продолжительность : 1 ч. 54 м.
Вид битрейта : Переменный
Битрейт : 126 Кбит/сек
Максимальный битрейт : 297 Кбит/сек
Каналы : 2 канала
Расположение каналов : Front: L R
Частота : 44,1 КГц
Частота кадров : 43,066 кадра/сек (1024 SPF)
Метод сжатия : С потерями
Размер потока : 103 Мбайт (28%)
Язык : English
Дата кодирования : UTC 2017-11-20 16:57:50
Дата пометки : UTC 2017-11-20 16:57:50

Общее
Полное имя Тренинг 12 поток День шестой.mp4
Формат : MPEG-4
Профиль формата : Base Media / Version 2
Идентификатор кодека : mp42 (M4V /mp42/isom)
Размер файла : 107 Мбайт
Продолжительность : 3 ч. 0 м.
Общий поток : 82,6 Кбит/сек
Дата кодирования : UTC 2017-11-19 10:07:28
Дата пометки : UTC 2017-11-19 10:07:28

Видео
Идентификатор : 1
Формат : AVC
Формат/Информация : Advanced Video Codec
Профиль формата : [email protected]
Настройки формата : CABAC / 4 Ref Frames
Параметр CABAC формата : Да
Параметр RefFrames формата : 4 кадра
Идентификатор кодека : avc1
Идентификатор кодека/Информация : Advanced Video Coding
Продолжительность : 3 ч. 0 м.
Продолжительность оригинала : 3 ч. 0 м.
Битрейт : 68,4 Кбит/сек
Ширина : 1280 пикселей
Высота : 720 пикселей
Соотношение сторон : 16:9
Режим частоты кадров : Постоянный
Частота кадров : 30,000 кадров/сек
Стандарт вещания : NTSC
Цветовое пространство : YUV
Субдискретизация насыщенности : 4:2:0
Битовая глубина : 8 бит
Тип развёртки : Прогрессивная
Бит/(Пиксели*Кадры) : 0.002
Размер потока : 88,4 Мбайт (83%)
Размер потока оригинала : 88,4 Мбайт (83%)
Язык : English
Дата кодирования : UTC 2017-11-19 10:07:28
Дата пометки : UTC 2017-11-19 10:07:28
Цветовой диапазон : Limited
Основные цвета : BT.709
Характеристики трансфера : BT.709
Коэффициенты матрицы : BT.709
mdhd_Duration : 10825076

Аудио
Идентификатор : 2
Формат : AAC
Формат/Информация : Advanced Audio Codec
Профиль формата : LC
Идентификатор кодека : mp4a-40-2
Продолжительность : 3 ч. 0 м.
Продолжительность оригинала : 3 ч. 0 м.
Вид битрейта : Постоянный
Битрейт : 11,4 Кбит/сек
Каналы : 2 канала
Расположение каналов : Front: L R
Частота : 44,1 КГц
Частота кадров : 43,066 кадра/сек (1024 SPF)
Метод сжатия : С потерями
Размер потока : 14,8 Мбайт (14%)
Размер потока оригинала : 14,8 Мбайт (14%)
Язык : English
Дата кодирования : UTC 2017-11-19 10:07:28
Дата пометки : UTC 2017-11-19 10:07:28
mdhd_Duration : 10904063

Общее
Полное имя Тренинг 12 поток Четвёртое занятие Наполняемость квартир.mp4
Формат : MPEG-4
Профиль формата : Base Media / Version 2
Идентификатор кодека : mp42 (isom/mp42)
Размер файла : 397 Мбайт
Продолжительность : 2 ч. 34 м.
Режим общего битрейта : Переменный
Общий поток : 359 Кбит/сек
Дата кодирования : UTC 2017-11-21 04:50:59
Дата пометки : UTC 2017-11-21 04:50:59

Видео
Идентификатор : 1
Формат : AVC
Формат/Информация : Advanced Video Codec
Профиль формата : [email protected]
Настройки формата : 3 Ref Frames
Параметр CABAC формата : Нет
Параметр RefFrames формата : 3 кадра
Идентификатор кодека : avc1
Идентификатор кодека/Информация : Advanced Video Coding
Продолжительность : 2 ч. 34 м.
Битрейт : 231 Кбит/сек
Ширина : 1280 пикселей
Высота : 720 пикселей
Соотношение сторон : 16:9
Режим частоты кадров : Постоянный
Частота кадров : 30,000 кадров/сек
Стандарт вещания : NTSC
Цветовое пространство : YUV
Субдискретизация насыщенности : 4:2:0
Битовая глубина : 8 бит
Тип развёртки : Прогрессивная
Бит/(Пиксели*Кадры) : 0.008
Размер потока : 255 Мбайт (64%)
Язык : English
Дата кодирования : UTC 2017-11-21 04:51:02
Дата пометки : UTC 2017-11-21 04:51:02
Цветовой диапазон : Limited

Аудио
Идентификатор : 2
Формат : AAC
Формат/Информация : Advanced Audio Codec
Профиль формата : LC
Идентификатор кодека : mp4a-40-2
Продолжительность : 2 ч. 34 м.
Вид битрейта : Переменный
Битрейт : 126 Кбит/сек
Максимальный битрейт : 261 Кбит/сек
Каналы : 2 канала
Расположение каналов : Front: L R
Частота : 44,1 КГц
Частота кадров : 43,066 кадра/сек (1024 SPF)
Метод сжатия : С потерями
Размер потока : 139 Мбайт (35%)
Язык : English
Дата кодирования : UTC 2017-11-21 04:51:02
Дата пометки : UTC 2017-11-21 04:51:02

0a9743455cf1ecb43e2e7dee2a98ba0a.jpg
332b75097172d78cbf240facf33b5e54.jpg
b36dba9ac1107cab440b9dc386abdf0f.jpg

Скачать:
Для просмотра содержимого вам необходимо авторизоваться.
 
Внимание!!! Отзыв к курсу НУЖНО оставить нажав на количество звезд, которое соответствует вашей оценке скачанного материала, звезды находятся в правом верхнем углу первого поста темы.
Не пишитечто ссылка умерла, если ссылка не работает нажмите кнопку "Ссылка умерла!" справа снизу первого поста темы.
Не пишитеодносложные посты типа "Спс" "Качнул" (считается флудом), отнеситесь с уважением к пользователям ресурса, модераторы, в свою очередь, не жадные на предупреждения.

Привет!

Мы группа людей которые решили помочь другим в решении их проблем, а так же пользователям с поиском самых свежих и качественных инфопродуктов. За 4 с небольшим месяца мы создали этот форум на который заходят ежедневно тысячи человек и посещаемость постоянно растёт. Мы создали панель лицензирования для защиты PHP скриптов от воровства и SEO панель для мониторинга наших сайтов и выбора верной стратегии их развития. Мы надеемся что то что мы создали пригодится Вам и возможно Вы поможете нам развиваться и совершенствоваться вместе с Вами.

Статистика форума

Темы
414.370
Сообщения
475.396
Пользователи
96.561
Новый пользователь
starushka

Приложения форума для iOS и Android


У ркн там нет власти ;)
Приватные разговоры
Помощь Пользователи
    Вы не присоединились ни к одной комнате.