За последнюю неделю опубликовано 63 новых материалов.
Инструкция новичку Путеводитель по форуму Прокси для Telegram Показать подсказки , это бомба!

Скачать Тот, кто сидит внутри / Nae aneui geunom (2019) WEB-DL 1080p | L2 бесплатно через торрент

  • Поучаствуй (в качестве покупателя) в любых пяти совместных покупках (кроме завершённых и "Моментальных") и получи группу "Новичок" навсегда -> ссылка на раздел
  • Получай до 480 рублей за каждого приглашенного пользователя!
    представляем Вам очередное расширение партнерской программы, подробности описаны тут -> ссылка
  • 90% материалов доступно к скачиванию после простой регистрации!
    Если же ты хочешь скачивать материалы без требования оставлять отзывы то получи группу "Новичок", 10 способов повышения описаны тут -> ссылка
  • К сожалению количество битых ссылок растет и мы уже не можем их оперативно восстанавливать поэтому просим помощи у каждого нашего пользователя.
    С сегодняшнего дня, за каждую восстановленную ссылку мы заплатим Вам.
    Подробнее тут -> ссылка
  • Перенесем твои заслуги с другого ресурса!
    Мы понимаем как сложно прокачивать аккаунты на форумах, вроде раскачал аккаунт, а тут появляется ресурс в 100 раз круче но тоже с системой прокачки и снова качать аккаунт...
    Предлагаем вам перенести Ваши заслуги на другом подобном ресурсе к нам.
    Подробности описаны тут -> ссылка
  • Вы можете получать по 2.5% с каждой покупки и продажи на маркете! Подробности в теме Партнёрская программа
Если Вы не хотите скачивать, Вы всегда можетепосмотретьонлайн, просто нажмите кнопку ниже :

Открыть плеер

Torrent_Bot

Торрент-Бот
Бот форума
4 Окт 2016
92
160
20



Информация о фильме
Название: Тот, кто сидит внутри / Мужик внутри меня
Оригинальное название: Nae aneui geunom / The Dude In Me
Год выхода: 2019
Жанр: комедия, фэнтези, мелодрама
Режиссер: Кан Хё-джин
В ролях: Чин Ён, Пак Сон-ун, Ра Ми-ран, Ли Су-мин, Ли Джун-хёк, Ким Гван-гю, Мин Джи-а, Юн Гён-хо, Ким Хён-мок, Квон Хёк-бом

О фильме:
Гангстер Чан Пхан-су всего в жизни добился сам и теперь занимает высокий пост в корпорации тестя, а единственное, о чём он вспоминает с сожалением — его первая любовь Ми-сон, которую он бросил много лет назад. Однажды его путь в прямом смысле пересекается с траекторией падающего с крыши упитанного подростка Ким Дон-хёна, в результате чего оба теряют сознание. Когда Пхан-су приходит в себя, он оказывается в теле старшеклассника, а его собственное тело — в коме. Делать нечего, придётся теперь бандиту жить с отцом Дон-хёна и ходить в обычную школу, а там, как выясняется, есть куда применить бандитские навыки.



Страна: Южная Корея
Студия: Eco Film (Korea), Merry Christmas Entertainment, Pictures with a View, The Contents On
Продолжительность: 02:02:12
Перевод: Любительский двухголосый, закадровый [GREEN TEA - Анастасия Романова, Александр Жуков]

Файл
Кодек: H.264
Качество: WEB-DL 1080p
Видео: AVC, 1920x1080 (16:9), 23.976 fps ~ 3830 Kbps
Звук:
AC3, 48 KHz, 2 ch ~ 192 Кb/s (русский)
Е-AC3, 48 KHz, 2 ch ~ 128 Кb/s (корейский)
Субтитры: Русские, английские, корейские

MI:
General
Unique ID : 41475400714303136136952828702391519639 (0x1F33DF226E238CBAC19CDB79E2F7C997)
Complete name : J:wotThe.Dude.In.Me.2019.1080p.NF.WEB-DL.mkv
Format : Matroska
Format version : Version 4 / Version 2
File size : 3.54 GiB
Duration : 2h 2mn
Overall bit rate mode : Variable
Overall bit rate : 4 146 Kbps
Movie name : Тот, кто сидит внутри / Мужик внутри меня / Nae aneui geunom / The Dude In Me (2019) WEB-DL (1080p)
Encoded date : UTC 2020-05-29 11:18:09
Writing application : mkvmerge v42.0.0 ('Overtime') 32-bit
Writing library : libebml v1.3.10 + libmatroska v1.5.2
DURATION : 01:58:24.640000000
NUMBER_OF_FRAMES : 1360
NUMBER_OF_BYTES : 58090
_STATISTICS_WRITING_APP : mkvmerge v42.0.0 ('Overtime') 32-bit
_STATISTICS_WRITING_DATE_UTC : 2020-05-29 11:18:09
_STATISTICS_TAGS : BPS DURATION NUMBER_OF_FRAMES NUMBER_OF_BYTES

Video
ID : 1
Format : AVC
Format/Info : Advanced Video Codec
Format profile : [email protected]
Format settings, CABAC : Yes
Format settings, ReFrames : 3 frames
Codec ID : V_MPEG4/ISO/AVC
Duration : 2h 2mn
Bit rate mode : Variable
Bit rate : 3 830 Kbps
Maximum bit rate : 5 745 Kbps
Width : 1 920 pixels
Height : 1 080 pixels
Display aspect ratio : 16:9
Frame rate mode : Constant
Frame rate : 23.976 fps
Color space : YUV
Chroma subsampling : 4:2:0
Bit depth : 8 bits
Scan type : Progressive
Bits/(Pixel*Frame) : 0.077
Stream size : 3.20 GiB (90%)
Title : Тот, кто сидит внутри / Мужик внутри меня / Nae aneui geunom / The Dude In Me (2019) WEB-DL (1080p)
Writing library : x264 core 148 r2715 7e75228
Encoding settings : cabac=1 / ref=3 / deblock=1:0:0 / analyse=0x1:0x111 / me=umh / subme=10 / psy=1 / psy_rd=1.00:0.00 / mixed_ref=1 / me_range=24 / chroma_me=1 / trellis=2 / 8x8dct=0 / cqm=0 / deadzone=21,11 / fast_pskip=1 / chroma_qp_offset=-2 / threads=6 / lookahead_threads=1 / sliced_threads=0 / nr=0 / decimate=1 / interlaced=0 / bluray_compat=0 / stitchable=1 / constrained_intra=0 / bframes=2 / b_pyramid=0 / b_adapt=2 / b_bias=0 / direct=3 / weightb=1 / open_gop=0 / weightp=2 / keyint=250 / keyint_min=23 / scenecut=0 / intra_refresh=0 / rc_lookahead=48 / rc=2pass / mbtree=1 / bitrate=3830 / ratetol=1.0 / qcomp=0.50 / qpmin=6 / qpmax=51 / qpstep=4 / cplxblur=20.0 / qblur=0.5 / vbv_maxrate=5745 / vbv_bufsize=7660 / nal_hrd=vbr / filler=0 / ip_ratio=1.40 / aq=1:1.00
Language : Korean
Default : Yes
Forced : Yes
DURATION : 02:02:12.896000000
NUMBER_OF_FRAMES : 229153
NUMBER_OF_BYTES : 117326336
_STATISTICS_WRITING_APP : mkvmerge v42.0.0 ('Overtime') 32-bit
_STATISTICS_WRITING_DATE_UTC : 2020-05-29 11:18:09
_STATISTICS_TAGS : BPS DURATION NUMBER_OF_FRAMES NUMBER_OF_BYTES

Audio #1
ID : 2
Format : AC-3
Format/Info : Audio Coding 3
Mode extension : CM (complete main)
Format settings, Endianness : Big
Codec ID : A_AC3
Duration : 2h 2mn
Bit rate mode : Constant
Bit rate : 192 Kbps
Channel(s) : 2 channels
Channel positions : Front: L R
Sampling rate : 48.0 KHz
Compression mode : Lossy
Stream size : 168 MiB (5%)
Title : DVO GREEN TEA
Language : Russian
Default : No
Forced : Yes

Audio #2
ID : 3
Format : E-AC-3
Format/Info : Audio Coding 3
Format settings, Endianness : Big
Codec ID : A_EAC3
Duration : 2h 2mn
Bit rate mode : Constant
Bit rate : 128 Kbps
Channel(s) : 2 channels
Channel positions : Front: L R
Sampling rate : 48.0 KHz
Compression mode : Lossy
Stream size : 112 MiB (3%)
Language : Korean
Default : No
Forced : No

Text #1
ID : 4
Format : UTF-8
Codec ID : S_TEXT/UTF8
Codec ID/Info : UTF-8 Plain Text
Title : ФСГ Zipper
Language : Russian
Default : No
Forced : No

Text #2
ID : 5
Format : UTF-8
Codec ID : S_TEXT/UTF8
Codec ID/Info : UTF-8 Plain Text
Language : English
Default : No
Forced : No

Text #3
ID : 6
Format : UTF-8
Codec ID : S_TEXT/UTF8
Codec ID/Info : UTF-8 Plain Text
Language : Korean
Default : No
Forced : No

Скриншоты
 

Вложения

  • 18,6 KB Просмотры: 0
    Личеров 0
    Сидеров 0
    Файлов 1
    Объем 3,5 GB

Привет!

Мы группа людей которые решили помочь другим в решении их проблем, а так же пользователям с поиском самых свежих и качественных инфопродуктов. За 4 с небольшим месяца мы создали этот форум на который заходят ежедневно тысячи человек и посещаемость постоянно растёт. Мы создали панель лицензирования для защиты PHP скриптов от воровства и SEO панель для мониторинга наших сайтов и выбора верной стратегии их развития. Мы надеемся что то что мы создали пригодится Вам и возможно Вы поможете нам развиваться и совершенствоваться вместе с Вами.

Статистика форума

Темы
406.656
Сообщения
465.107
Пользователи
84.677
Новый пользователь
maxim_nik33

Приложения форума для iOS и Android


У ркн там нет власти ;)
Приватные разговоры
Помощь Пользователи
    Вы не присоединились ни к одной комнате.