За последнюю неделю опубликовано 48 новых материалов.
Инструкция новичку Путеводитель по форуму Прокси для Telegram Показать подсказки , это бомба!

Скачать Тоня против всех / I, Tonya (2017) BDRip 720p от k.e.n & MegaPeer | iTunes бесплатно через торрент

  • Поучаствуй (в качестве покупателя) в любых пяти совместных покупках (кроме завершённых и "Моментальных") и получи группу "Новичок" навсегда -> ссылка на раздел
  • Получай до 480 рублей за каждого приглашенного пользователя!
    представляем Вам очередное расширение партнерской программы, подробности описаны тут -> ссылка
  • 90% материалов доступно к скачиванию после простой регистрации!
    Если же ты хочешь скачивать материалы без требования оставлять отзывы то получи группу "Новичок", 10 способов повышения описаны тут -> ссылка
  • К сожалению количество битых ссылок растет и мы уже не можем их оперативно восстанавливать поэтому просим помощи у каждого нашего пользователя.
    С сегодняшнего дня, за каждую восстановленную ссылку мы заплатим Вам.
    Подробнее тут -> ссылка
  • Перенесем твои заслуги с другого ресурса!
    Мы понимаем как сложно прокачивать аккаунты на форумах, вроде раскачал аккаунт, а тут появляется ресурс в 100 раз круче но тоже с системой прокачки и снова качать аккаунт...
    Предлагаем вам перенести Ваши заслуги на другом подобном ресурсе к нам.
    Подробности описаны тут -> ссылка
  • Вы можете получать по 2.5% с каждой покупки и продажи на маркете! Подробности в теме Партнёрская программа
Если Вы не хотите скачивать, Вы всегда можетепосмотретьонлайн, просто нажмите кнопку ниже :

Открыть плеер

Torrent_Bot

Торрент-Бот
Бот форума
4 Окт 2016
90
168
20
Информация о фильме
Название: Тоня против всех
Оригинальное название: I, Tonya
Год выпуска: 2017
Жанр: Комедия, драма, биография, спорт
Режиссер: Крэйг Гиллеспи
В ролях: Марго Робби, Себастьян Стэн, Эллисон Джэнни, Кэйтлин Карвер, Бобби Каннавейл, Маккенна Грэйс, Бояна Новакович, Джулианна Николсон, Катрин Дайер, Пол Уолтер Хаузер

О фильме:
Американской фигуристке Тоне Хардинг пришлось нелегко: сначала тяжелое детство с грозной матерью, потом тяжелая юность, ранний брак с проходимцем и неудачи на соревнованиях из-за заниженных судьями оценок. А потом случился скандал: во время важнейших соревнований идея запугать конкурентку идёт не по плану…

51de329e9bfa790090939fe34f201232.gif

Страна: США
Студия: Clubhouse Pictures (II)
Продолжительность: 01:59:58
Перевод: Дублированный | iTunes

Файл
Формат: MKV
Качество: BDRip 720p | Blu-ray 1080p |
Видео: AVC, 1280x536 (2.40:1), 23.976 fps, 4 320 Kbps (0.263 bit/pixel)
Аудио #1: AC-3, 48.0 KHz, 6 ch, 384 Kbps, CBR (Russian)
Аудио #2: AC-3, 48.0 KHz, 6 ch, 448 Kbps, CBR (English)
Субтитры: Russian, English

Скриншоты:
643b710c1e23a121e1f56fdc0b1d41ae.png1c0f4d38dea15850bc36fb033ef206e8.png57203b495a070428e0ada1e76bc8fe58.png647f3bbeafc7c09c5b05e95c0375f967.png


x264 log
x264 [info]: frame I:1108 Avg QP:16.06 size:108482 PSNR Mean Y:46.49 U:50.76 V:50.54 Avg:47.43 Global:46.77
x264 [info]: frame P:37848 Avg QP:19.04 size: 37454 PSNR Mean Y:44.39 U:50.21 V:49.47 Avg:45.48 Global:44.73
x264 [info]: frame B:133648 Avg QP:21.16 size: 17528 PSNR Mean Y:43.04 U:49.38 V:49.21 Avg:44.24 Global:43.37
MediaInfo
Полное имя : D:КИНО НА ДИСКНовая папкаТоня против всех.2017 (Марго Робби).mkv
Формат : Matroska
Версия формата : Version 2
Размер файла : 4,31 Гбайт
Продолжительность : 1 ч. 59 м.
Общий поток : 5147 Кбит/сек
Дата кодирования : UTC 2018-03-05 18:08:29
Программа кодирования : mkvmerge v5.3.0 ('I could have danced') built on Feb 9 2012 10:38:07
Библиотека кодирования : libebml v1.2.3 + libmatroska v1.3.0
Attachments : poster (2).jpg

Видео
Идентификатор : 1
Формат : AVC
Формат/Информация : Advanced Video Codec
Профиль формата : [email protected]
Параметр CABAC формата : Да
Параметр ReFrames формата : 12 кадров
Идентификатор кодека : V_MPEG4/ISO/AVC
Продолжительность : 1 ч. 59 м.
Битрейт : 4320 Кбит/сек
Ширина : 1280 пикселей
Высота : 536 пикселей
Соотношение сторон : 2,40:1
Режим частоты кадров : Постоянный
Частота кадров : 23,976 (24000/1001) кадра/сек
Цветовое пространство : YUV
Субдискретизация насыщенности : 4:2:0
Битовая глубина : 8 бит
Тип развёртки : Прогрессивная
Бит/(Пиксели*Кадры) : 0.263
Размер потока : 3,53 Гбайт (82%)
Библиотека кодирования : x264 core 146 r2538 121396c
Настройки программы : cabac=1 / ref=12 / deblock=1:-3:-3 / analyse=0x3:0x133 / me=umh / subme=11 / psy=1 / psy_rd=1.05:0.10 / mixed_ref=1 / me_range=32 / chroma_me=1 / trellis=2 / 8x8dct=1 / cqm=0 / deadzone=21,11 / fast_pskip=0 / chroma_qp_offset=-3 / threads=12 / lookahead_threads=3 / sliced_threads=0 / nr=0 / decimate=1 / interlaced=0 / bluray_compat=0 / constrained_intra=0 / bframes=11 / b_pyramid=2 / b_adapt=2 / b_bias=0 / direct=3 / weightb=1 / open_gop=0 / weightp=2 / keyint=240 / keyint_min=23 / scenecut=40 / intra_refresh=0 / rc=2pass / mbtree=0 / bitrate=4320 / ratetol=1.0 / qcomp=0.60 / qpmin=0 / qpmax=69 / qpstep=4 / cplxblur=20.0 / qblur=0.5 / ip_ratio=1.40 / pb_ratio=1.30 / aq=1:0.90
Язык : English
Default : Да
Forced : Нет

Аудио #1
Идентификатор : 2
Формат : AC-3
Формат/Информация : Audio Coding 3
Расширение режима : CM (complete main)
Параметр Endianness формата : Big
Идентификатор кодека : A_AC3
Продолжительность : 1 ч. 59 м.
Вид битрейта : Постоянный
Битрейт : 384 Кбит/сек
Каналы : 6 каналов
Расположение каналов : Front: L C R, Side: L R, LFE
Частота : 48,0 КГц
Частота кадров : 31,250 кадров/сек (1536 spf)
Битовая глубина : 16 бит
Метод сжатия : С потерями
Размер потока : 330 Мбайт (7%)
Заголовок : iTunes
Язык : Russian
Default : Да
Forced : Нет

Аудио #2
Идентификатор : 3
Формат : AC-3
Формат/Информация : Audio Coding 3
Расширение режима : CM (complete main)
Параметр Endianness формата : Big
Идентификатор кодека : A_AC3
Продолжительность : 1 ч. 59 м.
Вид битрейта : Постоянный
Битрейт : 448 Кбит/сек
Каналы : 6 каналов
Расположение каналов : Front: L C R, Side: L R, LFE
Частота : 48,0 КГц
Частота кадров : 31,250 кадров/сек (1536 spf)
Битовая глубина : 16 бит
Метод сжатия : С потерями
Размер потока : 384 Мбайт (9%)
Язык : English
Default : Нет
Forced : Нет

Текст #1
Идентификатор : 4
Формат : UTF-8
Идентификатор кодека : S_TEXT/UTF8
Идентификатор кодека/Информация : UTF-8 Plain Text
Заголовок : Full
Язык : Russian
Default : Нет
Forced : Нет

Текст #2
Идентификатор : 5
Формат : UTF-8
Идентификатор кодека : S_TEXT/UTF8
Идентификатор кодека/Информация : UTF-8 Plain Text
Заголовок : full (no cens.)
Язык : Russian
Default : Нет
Forced : Нет

Текст #3
Идентификатор : 6
Формат : UTF-8
Идентификатор кодека : S_TEXT/UTF8
Идентификатор кодека/Информация : UTF-8 Plain Text
Заголовок : full
Язык : English
Default : Нет
Forced : Нет

Текст #4
Идентификатор : 7
Формат : UTF-8
Идентификатор кодека : S_TEXT/UTF8
Идентификатор кодека/Информация : UTF-8 Plain Text
Заголовок : SDH
Язык : English
Default : Нет
Forced : Нет

Текст #5
Идентификатор : 8
Формат : UTF-8
Идентификатор кодека : S_TEXT/UTF8
Идентификатор кодека/Информация : UTF-8 Plain Text
Заголовок : Colored
Язык : English
Default : Нет
Forced : Нет

Меню
00:00:00.000 : en:00:00:00.000
00:18:16.804 : en:00:18:16.804
00:36:27.685 : en:00:36:27.685
00:55:08.514 : en:00:55:08.514
01:11:49.597 : en:01:11:49.597
01:24:35.153 : en:01:24:35.153
01:36:46.968 : en:01:36:46.968
01:52:34.289 : en:01:52:34.289
 

Вложения

Привет!

Мы группа людей которые решили помочь другим в решении их проблем, а так же пользователям с поиском самых свежих и качественных инфопродуктов. За 4 с небольшим месяца мы создали этот форум на который заходят ежедневно тысячи человек и посещаемость постоянно растёт. Мы создали панель лицензирования для защиты PHP скриптов от воровства и SEO панель для мониторинга наших сайтов и выбора верной стратегии их развития. Мы надеемся что то что мы создали пригодится Вам и возможно Вы поможете нам развиваться и совершенствоваться вместе с Вами.

Статистика форума

Темы
410.925
Сообщения
469.354
Пользователи
88.194
Новый пользователь
Pavel_sevas

Приложения форума для iOS и Android


У ркн там нет власти ;)
Приватные разговоры
Помощь Пользователи
    Вы не присоединились ни к одной комнате.