За последнюю неделю опубликовано 57 новых материалов.
Инструкция новичку Путеводитель по форуму Прокси для Telegram Показать подсказки , это бомба!

Скачать Только Бог простит / Only God Forgives (2013) BDRip 720p от ELEKTRI4KA | iTunes бесплатно через торрент

  • Поучаствуй (в качестве покупателя) в любых пяти совместных покупках (кроме завершённых и "Моментальных") и получи группу "Новичок" навсегда -> ссылка на раздел
  • Получай до 480 рублей за каждого приглашенного пользователя!
    представляем Вам очередное расширение партнерской программы, подробности описаны тут -> ссылка
  • 90% материалов доступно к скачиванию после простой регистрации!
    Если же ты хочешь скачивать материалы без требования оставлять отзывы то получи группу "Новичок", 10 способов повышения описаны тут -> ссылка
  • К сожалению количество битых ссылок растет и мы уже не можем их оперативно восстанавливать поэтому просим помощи у каждого нашего пользователя.
    С сегодняшнего дня, за каждую восстановленную ссылку мы заплатим Вам.
    Подробнее тут -> ссылка
  • Перенесем твои заслуги с другого ресурса!
    Мы понимаем как сложно прокачивать аккаунты на форумах, вроде раскачал аккаунт, а тут появляется ресурс в 100 раз круче но тоже с системой прокачки и снова качать аккаунт...
    Предлагаем вам перенести Ваши заслуги на другом подобном ресурсе к нам.
    Подробности описаны тут -> ссылка
  • Вы можете получать по 2.5% с каждой покупки и продажи на маркете! Подробности в теме Партнёрская программа
Если Вы не хотите скачивать, Вы всегда можетепосмотретьонлайн, просто нажмите кнопку ниже :

Открыть плеер

Torrent_Bot

Торрент-Бот
Бот форума
4 Окт 2016
92
163
20

Информация о фильме
Название: Только Бог простит
Оригинальное название: Only God Forgives
Год выхода: 2013
Жанр: триллер, драма, криминал
Режиссер: Николас Виндинг Рефн
В ролях: Райан Гослинг, Кристин Скотт Томас, Витхая Пансрингарм, Ейяинг Рхатха Пхонгам, Том Бёрк, Байрон Гибсон, Гордон Браун, Чарли

О фильме: Джулиан, бежавший от американского правосудия, руководит в Бангкоке клубом тайского бокса, который служит ему прикрытием для торговли наркотиками. Его мать, глава крупной преступной организации, приезжает из США, чтобы забрать тело своего любимого сына Билли: брата Джулиана только что убили за зверскую расправу над молодой проституткой. Охваченная яростью и жаждой мести мать требует, чтобы Джулиан нашел и покарал убийц. Молодому человеку придется столкнуться с Чангом — странным полицейским на пенсии, которого обожают его коллеги.



Выпущено: Франция, Таиланд, США, Швеция / A Grand Elephant, Bold Films, Film i Väst
Продолжительность: 01:29:29
Озвучивание: Дублированное | iTunes

Файл
Формат: MKV
Качество: BDRip 720p
Видео: MPEG-4 AVC, 5158 Kb/s, 1280x690
Аудио #1: Russian: 48 kHz, AC3 Dolby Digital, 3/2 (L, C, R, l, r) + LFE ch, ~384 Kbps | iTunes
Аудио #2: English: 48 kHz, Digital Theater Systems, 3/2 (L, C, R, l, r) + LFE ch, ~1509 Kbps | Original
Субтитры: Russian (Full), English
Дополнительно: Сохранены оригинальные чаптеры.

Релиз группы: &

MediaInfo:
Complete name: Tolko.Bog.prostit.2013.BluRay.720p.ELEKTRI4KA.UNIONGANG.mkv
Format: Matroska
Format version: Version 4 / Version 2
File size: 4.63 GiB
Duration: 1 h 29 min
Overall bit rate: 7 400 kb/s
Movie name: .ELEKTRI4KA.UNIONGANG.
Encoded date: UTC 2020-06-27 20:02:58
Writing application: mkvmerge v8.3.0 ('Over the Horizon') 64bit
Writing library: libebml v1.3.1 + libmatroska v1.4.2

Video
ID: 1
Format: AVC
Format/Info: Advanced Video Codec
Format profile: [email protected]
Format settings, CABAC: Yes
Format settings, Reference frames: 12 frames
Codec ID: V_MPEG4/ISO/AVC
Duration: 1 h 29 min
Bit rate: 5 158 kb/s
Width: 1 280 pixels
Height: 690 pixels
Display aspect ratio: 1.85:1
Frame rate mode: Constant
Frame rate: 23.976 (24000/1001) FPS
Color space: YUV
Chroma subsampling: 4:2:0
Bit depth: 8 bits
Scan type: Progressive
Bits/(Pixel*Frame): 0.244
Stream size: 3.22 GiB (70%)
Writing library: x264 core 125 r2208 d9d2288
Encoding settings: cabac=1 / ref=12 / deblock=1:-3:-3 / analyse=0x3:0x133 / me=tesa / subme=11 / psy=1 / psy_rd=1.00:0.05 / mixed_ref=1 / me_range=24 / chroma_me=1 / trellis=2 / 8x8dct=1 / cqm=0 / deadzone=21, 11 / fast_pskip=0 / chroma_qp_offset=-3 / threads=12 / lookahead_threads=2 / sliced_threads=0 / nr=0 / decimate=1 / interlaced=0 / bluray_compat=0 / constrained_intra=0 / bframes=7 / b_pyramid=2 / b_adapt=2 / b_bias=0 / direct=1 / weightb=1 / open_gop=0 / weightp=2 / keyint=250 / keyint_min=23 / scenecut=40 / intra_refresh=0 / rc=crf / mbtree=0 / crf=17.9 / qcomp=0.60 / qpmin=0 / qpmax=69 / qpstep=4 / ip_ratio=1.30 / pb_ratio=1.15 / aq=2:1.00
Language: English
Default: Yes
Forced: No

Audio #1
ID: 2
Format: AC-3
Format/Info: Audio Coding 3
Mode extension: CM (complete main)
Format settings, Endianness: Big
Codec ID: A_AC3
Duration: 1 h 29 min
Bit rate mode: Constant
Bit rate: 384 kb/s
Channel(s): 6 channels
Channel positions: Front: L C R, Side: L R, LFE
Sampling rate: 48.0 kHz
Frame rate: 31.250 FPS (1536 spf)
Bit depth: 16 bits
Compression mode: Lossy
Stream size: 246 MiB (5%)
Title: iTunes
Language: Russian
Default: Yes
Forced: No

Audio #2
ID: 3
Format: DTS
Format/Info: Digital Theater Systems
Format profile: MA / Core
Mode: 16
Format settings, Endianness: Big
Codec ID: A_DTS
Duration: 1 h 29 min
Bit rate mode: Variable / Constant
Bit rate: 1 856 kb/s / 1 509 kb/s
Channel(s): 6 channels
Channel positions: Front: L C R, Side: L R, LFE
Sampling rate: 48.0 kHz
Frame rate: 93.750 FPS (512 spf)
Bit depth: 16 bits
Compression mode: Lossless / Lossy
Stream size: 1.16 GiB (25%)
Language: English
Default: No
Forced: No

Text #1
ID: 4
Format: UTF-8
Codec ID: S_TEXT/UTF8
Codec ID/Info: UTF-8 Plain Text
Duration: 1 h 14 min
Bit rate: 24 b/s
Count of elements: 261
Stream size: 13.4 KiB (0%)
Title: Full
Language: Russian
Default: Yes
Forced: No

Text #2
ID: 5
Format: UTF-8
Codec ID: S_TEXT/UTF8
Codec ID/Info: UTF-8 Plain Text
Duration: 58 min 15 s
Bit rate: 4 b/s
Count of elements: 62
Stream size: 1.80 KiB (0%)
Title: English For Foreign Parts
Language: English
Default: No
Forced: Yes

Text #3
ID: 6
Format: UTF-8
Codec ID: S_TEXT/UTF8
Codec ID/Info: UTF-8 Plain Text
Duration: 1 h 11 min
Bit rate: 10 b/s
Count of elements: 185
Stream size: 5.57 KiB (0%)
Language: English
Default: No
Forced: No

Menu
00:00:00.000: en:00:00:00.000
00:06:43.320: en:00:06:43.320
00:17:57.285: en:00:17:57.285
00:23:58.312: en:00:23:58.312
00:29:55.585: en:00:29:55.585
00:37:12.814: en:00:37:12.814
00:46:54.353: en:00:46:54.353
00:54:06.994: en:00:54:06.994
01:01:20.260: en:01:01:20.260
01:08:08.710: en:01:08:08.710
01:15:42.872: en:01:15:42.872
01:26:46.159: en:01:26:46.159
Скриншоты
 

Вложения

  • 12,5 KB Просмотры: 0
    Личеров 0
    Сидеров 0
    Файлов 1
    Объем 4,6 GB

Привет!

Мы группа людей которые решили помочь другим в решении их проблем, а так же пользователям с поиском самых свежих и качественных инфопродуктов. За 4 с небольшим месяца мы создали этот форум на который заходят ежедневно тысячи человек и посещаемость постоянно растёт. Мы создали панель лицензирования для защиты PHP скриптов от воровства и SEO панель для мониторинга наших сайтов и выбора верной стратегии их развития. Мы надеемся что то что мы создали пригодится Вам и возможно Вы поможете нам развиваться и совершенствоваться вместе с Вами.

Статистика форума

Темы
406.698
Сообщения
465.162
Пользователи
84.787
Новый пользователь
Freckle

Приложения форума для iOS и Android


У ркн там нет власти ;)
Приватные разговоры
Помощь Пользователи
    Вы не присоединились ни к одной комнате.