За последнюю неделю опубликовано 97 новых материалов.
Инструкция новичку Путеводитель по форуму Прокси для Telegram Показать подсказки , это бомба!

Скачать Токийский гуль [ТВ-2] / Tokyo Ghoul A [01-12 из 12] (2015) HDTVRip 720p | AniDub бесплатно через торрент

  • Поучаствуй (в качестве покупателя) в любых пяти совместных покупках (кроме завершённых и "Моментальных") и получи группу "Новичок" навсегда -> ссылка на раздел
  • Получай до 480 рублей за каждого приглашенного пользователя!
    представляем Вам очередное расширение партнерской программы, подробности описаны тут -> ссылка
  • 90% материалов доступно к скачиванию после простой регистрации!
    Если же ты хочешь скачивать материалы без требования оставлять отзывы то получи группу "Новичок", 10 способов повышения описаны тут -> ссылка
  • К сожалению количество битых ссылок растет и мы уже не можем их оперативно восстанавливать поэтому просим помощи у каждого нашего пользователя.
    С сегодняшнего дня, за каждую восстановленную ссылку мы заплатим Вам.
    Подробнее тут -> ссылка
  • Перенесем твои заслуги с другого ресурса!
    Мы понимаем как сложно прокачивать аккаунты на форумах, вроде раскачал аккаунт, а тут появляется ресурс в 100 раз круче но тоже с системой прокачки и снова качать аккаунт...
    Предлагаем вам перенести Ваши заслуги на другом подобном ресурсе к нам.
    Подробности описаны тут -> ссылка
  • Вы можете получать по 2.5% с каждой покупки и продажи на маркете! Подробности в теме Партнёрская программа

Torrent_Bot

Торрент-Бот
Бот форума
4 Окт 2016
79
194
20
Токийский гуль [ТВ-2] / Tokyo Ghoul A

Перевод: Любительский (двухголосый) JAM & Nika Lenina
Субтитры: ASS, (внешние) русские by Cafesubs
Хардсаб: отсутствует

Формат: HDTVRip, MP4, H.264, AAC
Страна: Япония
Режиссер: Морита Сюхэй
Жанр:приключения, мистика, ужасы
Продолжительность: ТВ (12 эп.), 25 мин.
Год выпуска: 2015
Озвучка: JAM & Nika Lenina

Описание:Пройдя через страшную боль, унижение и ломку жизненных ценностей, Кэн Канэки переродился. Вместо неуклюжего гибрида человека и упыря возникло что-то новое, гораздо сильнее и совершеннее. Выпустив и укротив внутреннего зверя, Кэн встал на дорогу могущества, но куда она приведет? Пока что молодой боец уверен в одном – только абсолютная сила позволит ему жить так, как хочет, и защитить тех немногих, кто остался дорог. Остальные же – лишь враги, добыча, и ничего более.

Приняв закон джунглей, мрачный седой парень больше не уклоняется от конфликтов, а жестко ставит себя среди хищников. Такая резкая перемена заинтересовала тайную организацию гулей, стремящуюся к мировому господству своей расы. Возросшая активность людоедов заставила власти принять меры – а пострадать, как обычно, должны непричастные, в том числе мирные гули из кафе «Место встречи», когда-то спасшие Канэки и взявшие его под защиту. С кем будет главный герой в трудный час – со старыми или новыми друзьями? Или, как говорится, каждый за себя?
© Hollow, World Art

Видео: 1280x720 (16:9), 23.976 fps, MPEG4 Video (H264), [email protected] ~ 2097 kbps, 0.095 bit/pixel
Аудио #1: [JAP] 48.0KHz, AAC, 2ch, ~ 192Kbps avg
Аудио #2: [RUS] 48.0KHz, AAC, 2ch, ~ 192Kbps avg (внешним файлом)

Список серий
01 - New Surge
02 - Dancing Flowers
03 - Hangman
04 - Deeper Layers
05 - Rift
06 - Thousand Paths
07 - Permeation
08 - Old Nines
09 - City in Waiting
10 - Last Rain
11 - Deluge of Flowers
12 - Ken
MediaInfo
General
Complete name : D:avdump[Leopard-Raws] Tokyo Ghoul A - 01 RAW (MX 1280x720 x264 AAC).mp4
Format : MPEG-4
Format profile : Base Media
Codec ID : isom
File size : 401 MiB
Duration : 24mn 29s
Overall bit rate mode : Variable
Overall bit rate : 2 289 Kbps
Encoded date : UTC 2015-01-08 18:50:42
Tagged date : UTC 2015-01-08 18:50:42

Video
ID : 1
Format : AVC
Format/Info : Advanced Video Codec
Format profile : [email protected]
Format settings, CABAC : Yes
Format settings, ReFrames : 4 frames
Codec ID : avc1
Codec ID/Info : Advanced Video Coding
Duration : 24mn 29s
Bit rate : 2 097 Kbps
Maximum bit rate : 17.0 Mbps
Width : 1 280 pixels
Height : 720 pixels
Display aspect ratio : 16:9
Frame rate mode : Constant
Frame rate : 23.976 fps
Color space : YUV
Chroma subsampling : 4:2:0
Bit depth : 8 bits
Scan type : Progressive
Bits/(Pixel*Frame) : 0.095
Stream size : 367 MiB (92%)
Title : 264:[email protected]
Writing library : x264 core 129 r2245+729M 1a52e03
Encoding settings : cabac=1 / ref=4 / deblock=1:1:-1 / analyse=0x3:0x113 / me=umh / subme=9 / psy=1 / fade_compensate=0.00 / psy_rd=1.00:0.00 / mixed_ref=1 / me_range=24 / chroma_me=1 / trellis=2 / 8x8dct=1 / cqm=0 / deadzone=21,11 / fast_pskip=1 / chroma_qp_offset=-2 / threads=8 / lookahead_threads=1 / sliced_threads=0 / nr=0 / decimate=1 / interlaced=0 / bluray_compat=0 / constrained_intra=0 / fgo=0 / bframes=9 / b_pyramid=2 / b_adapt=2 / b_bias=0 / direct=1 / weightb=1 / open_gop=0 / weightp=2 / keyint=240 / keyint_min=24 / scenecut=40 / intra_refresh=0 / rc=crf / mbtree=0 / crf=18.0 / qcomp=0.72 / qpmin=0 / qpmax=69 / qpstep=4 / ip_ratio=1.40 / pb_ratio=1.30 / aq=1:0.85
Encoded date : UTC 2015-01-08 18:50:42
Tagged date : UTC 2015-01-08 18:50:46
Color primaries : BT.709
Transfer characteristics : BT.709
Matrix coefficients : BT.709

Audio
ID : 2
Format : AAC
Format/Info : Advanced Audio Codec
Format profile : LC
Codec ID : 40
Duration : 24mn 29s
Bit rate mode : Variable
Bit rate : 192 Kbps
Maximum bit rate : 233 Kbps
Channel(s) : 2 channels
Channel positions : Front: L R
Sampling rate : 48.0 KHz
Compression mode : Lossy
Stream size : 33.0 MiB (8%)
Language : Japanese
Encoded date : UTC 2015-01-08 17:23:06
Tagged date : UTC 2015-01-08 18:50:46
Скриншоты
58fcc03f209a7061187159cc266ca2f1.jpgea9f266699263c4fffeb931f49455d7b.jpga2193139dcc1d6070ff67ec7a08e9543.jpg9c990ccabdaab815149d5f66026dea12.jpg
 

Вложения

Привет!

Мы группа людей которые решили помочь другим в решении их проблем, а так же пользователям с поиском самых свежих и качественных инфопродуктов. За 4 с небольшим месяца мы создали этот форум на который заходят ежедневно тысячи человек и посещаемость постоянно растёт. Мы создали панель лицензирования для защиты PHP скриптов от воровства и SEO панель для мониторинга наших сайтов и выбора верной стратегии их развития. Мы надеемся что то что мы создали пригодится Вам и возможно Вы поможете нам развиваться и совершенствоваться вместе с Вами.

Статистика форума

Темы
414.370
Сообщения
475.396
Пользователи
96.561
Новый пользователь
starushka

Приложения форума для iOS и Android


У ркн там нет власти ;)
Приватные разговоры
Помощь Пользователи
    Вы не присоединились ни к одной комнате.