За последнюю неделю опубликовано 172 новых материалов.
Инструкция новичку Путеводитель по форуму Прокси для Telegram Показать подсказки , это бомба!

Скачать Того / Togo (2019) WEB-DLRip 720p | Flarrow Films бесплатно через торрент

  • Поучаствуй (в качестве покупателя) в любых пяти совместных покупках (кроме завершённых и "Моментальных") и получи группу "Новичок" навсегда -> ссылка на раздел
  • Получай до 480 рублей за каждого приглашенного пользователя!
    представляем Вам очередное расширение партнерской программы, подробности описаны тут -> ссылка
  • 90% материалов доступно к скачиванию после простой регистрации!
    Если же ты хочешь скачивать материалы без требования оставлять отзывы то получи группу "Новичок", 10 способов повышения описаны тут -> ссылка
  • К сожалению количество битых ссылок растет и мы уже не можем их оперативно восстанавливать поэтому просим помощи у каждого нашего пользователя.
    С сегодняшнего дня, за каждую восстановленную ссылку мы заплатим Вам.
    Подробнее тут -> ссылка
  • Перенесем твои заслуги с другого ресурса!
    Мы понимаем как сложно прокачивать аккаунты на форумах, вроде раскачал аккаунт, а тут появляется ресурс в 100 раз круче но тоже с системой прокачки и снова качать аккаунт...
    Предлагаем вам перенести Ваши заслуги на другом подобном ресурсе к нам.
    Подробности описаны тут -> ссылка
  • Вы можете получать по 2.5% с каждой покупки и продажи на маркете! Подробности в теме Партнёрская программа
Если Вы не хотите скачивать, Вы всегда можетепосмотретьонлайн, просто нажмите кнопку ниже :

Открыть плеер

Torrent_Bot

Торрент-Бот
Бот форума
4 Окт 2016
124
94
20


Информация о фильме
Название: Того
Оригинальное название: Togo
Год выхода: 2019
Жанр: драма, приключения
Режиссер: Эриксон Кор
В ролях: Уиллем Дефо, Джулианна Николсон, Кристофер Хейердал, Ричард Дормер, Эдриан Дорваль, Мадлен Уикинс, Майкл Грейес, Нив Нилсен, Николай Николаефф, Торбьорн Харр

О фильме:
Пёс Того в 1925 году помог предотвратить эпидемию дифтерии в городе Ном, Аляска. В упряжке с другими ездовыми собаками Того, несмотря на страшные погодные условия, смог доставить в город посылку с антитоксином, остановившим распространение болезни.



Страна: США
Продолжительность: 01:53:01
Перевод: Профессиональный (многоголосый, закадровый) | Flarrow Films

Файл
Формат: MKV
Кодек: MPEG-4 AVC
Качество: WEB-DLRip 720p
Видео: 1280x720, ~ 6 375 kb/s, 23.976 FPS, 8 bits
Звук: AC-3, 320 kb/s, 2 channels, 48.0 kHz
Субтитры: отсутствуют
Сэмпл:Скачать

Скриншоты


MediaInfo
General
Unique ID : 289352759967365920150844666499313553692 (0xD9AF50827F32ED0923841D437DD9D11C)
Complete name : [KORSARS]_Togo.WEB-DLRip.720p_[Flarrow_Films].mkv
Format : Matroska
Format version : Version 4
File size : 3.60 GiB
Duration : 1 h 53 min
Overall bit rate mode : Variable
Overall bit rate : 4 555 kb/s
Encoded date : UTC 2020-01-11 18:04:18
Writing application : mkvmerge v32.0.0 ('Astral Progressions') 64-bit
Writing library : libebml v1.3.7 + libmatroska v1.5.0

Video
ID : 1
Format : AVC
Format/Info : Advanced Video Codec
Format profile : High@L3.1
Format settings : CABAC / 4 Ref Frames
Format settings, CABAC : Yes
Format settings, Reference : 4 frames
Codec ID : V_MPEG4/ISO/AVC
Duration : 1 h 53 min
Bit rate mode : Variable
Bit rate : 4 233 kb/s
Maximum bit rate : 6 375 kb/s
Width : 1 280 pixels
Height : 720 pixels
Display aspect ratio : 16:9
Frame rate mode : Constant
Frame rate : 23.976 (24000/1001) FPS
Color space : YUV
Chroma subsampling : 4:2:0
Bit depth : 8 bits
Scan type : Progressive
Bits/(Pixel*Frame) : 0.192
Stream size : 3.34 GiB (93%)
Default : Yes
Forced : No
Color range : Limited
Color primaries : BT.709
Transfer characteristics : BT.709
Matrix coefficients : BT.709

Audio
ID : 2
Format : AC-3
Format/Info : Audio Coding 3
Commercial name : Dolby Digital
Codec ID : A_AC3
Duration : 1 h 53 min
Bit rate mode : Constant
Bit rate : 320 kb/s
Channel(s) : 2 channels
Channel layout : L R
Sampling rate : 48.0 kHz
Frame rate : 31.250 FPS (1536 SPF)
Compression mode : Lossy
Stream size : 259 MiB (7%)
Service kind : Complete Main
Default : Yes
Forced : No


Релиз от: Flarrow Films
Примечание: без интро Flarrow Films


 

Вложения

  • 19,2 KB Просмотры: 0
    Личеров 0
    Сидеров 0
    Файлов 1
    Объем 3,6 GB
Ваш e-mail не будет опубликован. Он потребуется для подтверждения Вашего поста.
Оформление текста Нажмите «Ввод», чтобы отправить ответ.

Привет!

Мы группа людей которые решили помочь другим в решении их проблем, а так же пользователям с поиском самых свежих и качественных инфопродуктов. За 4 с небольшим месяца мы создали этот форум на который заходят ежедневно тысячи человек и посещаемость постоянно растёт. Мы создали панель лицензирования для защиты PHP скриптов от воровства и SEO панель для мониторинга наших сайтов и выбора верной стратегии их развития. Мы надеемся что то что мы создали пригодится Вам и возможно Вы поможете нам развиваться и совершенствоваться вместе с Вами.

Статистика форума

Темы
378.752
Сообщения
418.035
Пользователи
49.740
Новый пользователь
Лауфер

Приложения форума для iOS и Android


У ркн там нет власти ;)
Приватные разговоры
Помощь Пользователи
    Вы не присоединились ни к одной комнате.