За последнюю неделю опубликовано 52 новых материалов.
Инструкция новичку Путеводитель по форуму Прокси для Telegram Показать подсказки , это бомба!

Скачать Точка возврата / Backtrace (2018) HDRip-AVC от ExKinoRay | D бесплатно через торрент

  • Поучаствуй (в качестве покупателя) в любых пяти совместных покупках (кроме завершённых и "Моментальных") и получи группу "Новичок" навсегда -> ссылка на раздел
  • Получай до 480 рублей за каждого приглашенного пользователя!
    представляем Вам очередное расширение партнерской программы, подробности описаны тут -> ссылка
  • 90% материалов доступно к скачиванию после простой регистрации!
    Если же ты хочешь скачивать материалы без требования оставлять отзывы то получи группу "Новичок", 10 способов повышения описаны тут -> ссылка
  • К сожалению количество битых ссылок растет и мы уже не можем их оперативно восстанавливать поэтому просим помощи у каждого нашего пользователя.
    С сегодняшнего дня, за каждую восстановленную ссылку мы заплатим Вам.
    Подробнее тут -> ссылка
  • Перенесем твои заслуги с другого ресурса!
    Мы понимаем как сложно прокачивать аккаунты на форумах, вроде раскачал аккаунт, а тут появляется ресурс в 100 раз круче но тоже с системой прокачки и снова качать аккаунт...
    Предлагаем вам перенести Ваши заслуги на другом подобном ресурсе к нам.
    Подробности описаны тут -> ссылка
  • Вы можете получать по 2.5% с каждой покупки и продажи на маркете! Подробности в теме Партнёрская программа
Если Вы не хотите скачивать, Вы всегда можетепосмотретьонлайн, просто нажмите кнопку ниже :

Открыть плеер

Torrent_Bot

Торрент-Бот
Бот форума
4 Окт 2016
93
160
20



Название: Точка возврата
Оригинальное название: Backtrace
Год выхода: 2018
Жанр: драма, криминал
Режиссер: Брайан А. Миллер
В ролях: Сильвестр Сталлоне, Мэттью Модайн, Колин Эглсфилд, Медоу Уильямс, Райан Гузман, Кристофер Макдональд, Свен Теммел, Байли Каррен,Дженна Уиллис, Лидия Халл

О фильме: Дерзкое ограбление инкассаторской машины стало самым громким преступлением в городе. Главную тайну — где спрятаны украденные деньги — сможет раскрыть только единственный выживший после заварухи преступник. Но есть один нюанс: он полностью потерял память. Раскрыть преступление поможет экспериментальное вещество: грабитель, изучая глубины своего разума, и коп, следующий за ним, должны прийти к точке возврата. Точке, где всё началось и должно закончиться.



Страна: Канада, США
Студия: Diamond Films, Dreamscape Productions
Продолжительность: 01:36:42
Перевод: Дублированный [IVI]

Более полная версия фильма, длиннее Американской версии на 9 минут.

Формат: MKV
Качество: HDRip-AVC
Видео: MPEG-4 AVC, 720x388 (1.85:1), 23.976 fps, 1760 Kbps, 0.263 bit/pixel
Аудио : 48 kHz, AC3, 5.1, 384 Kbps | Dub | RUS |


ОтчетМедиаИнфо
General
Unique ID : 175495496474264156746130911770118835112 (0x840734035FD788A69FF9E39EBDC1CBA8)
Complete name : F:Backtrace.2018.HDRip.AVC.ExKinoRay.mkv
Format : Matroska
Format version : Version 2
File size : 1.45 GiB
Duration : 1 h 36 min
Overall bit rate : 2 143 kb/s
Movie name : Backtrace 2018 from ExKinoRay
Encoded date : UTC 2020-08-29 00:20:34
Writing application : mkvmerge v5.6.0 ('Kenya Kane') built on May 27 2012 16:44:04
Writing library : libebml v1.2.3 + libmatroska v1.3.0

Video
ID : 1
Format : AVC
Format/Info : Advanced Video Codec
Format profile : [email protected]
Format settings, CABAC : Yes
Format settings, ReFrames : 12 frames
Codec ID : V_MPEG4/ISO/AVC
Duration : 1 h 36 min
Bit rate : 1 760 kb/s
Width : 720 pixels
Height : 388 pixels
Display aspect ratio : 1.85:1
Frame rate mode : Constant
Frame rate : 23.976 (24000/1001) FPS
Original frame rate : 23.976 (23976/1000) FPS
Color space : YUV
Chroma subsampling : 4:2:0
Bit depth : 8 bits
Scan type : Progressive
Bits/(Pixel*Frame) : 0.263
Stream size : 1.16 GiB (80%)
Title : Enigma
Writing library : x264 core 152 r2851 ba24899
Encoding settings : cabac=1 / ref=12 / deblock=1:-2:-2 / analyse=0x3:0x113 / me=umh / subme=10 / psy=1 / psy_rd=1.00:0.05 / mixed_ref=1 / me_range=32 / chroma_me=1 / trellis=2 / 8x8dct=1 / cqm=0 / deadzone=21,11 / fast_pskip=0 / chroma_qp_offset=-3 / threads=12 / lookahead_threads=3 / sliced_threads=0 / nr=0 / decimate=0 / interlaced=0 / bluray_compat=0 / constrained_intra=0 / bframes=10 / b_pyramid=2 / b_adapt=2 / b_bias=0 / direct=3 / weightb=1 / open_gop=0 / weightp=2 / keyint=240 / keyint_min=23 / scenecut=40 / intra_refresh=0 / rc=2pass / mbtree=0 / bitrate=1760 / ratetol=1.0 / qcomp=0.60 / qpmin=0 / qpmax=51 / qpstep=4 / cplxblur=20.0 / qblur=0.5 / ip_ratio=1.30 / pb_ratio=1.20 / aq=2:0.90
Default : Yes
Forced : No
Color range : Limited
Color primaries : BT.709
Transfer characteristics : BT.709
Matrix coefficients : BT.709

Audio
ID : 2
Format : AC-3
Format/Info : Audio Coding 3
Mode extension : CM (complete main)
Format settings, Endianness : Big
Codec ID : A_AC3
Duration : 1 h 36 min
Bit rate mode : Constant
Bit rate : 384 kb/s
Channel(s) : 6 channels
Channel positions : Front: L C R, Side: L R, LFE
Sampling rate : 48.0 kHz
Frame rate : 31.250 FPS (1536 spf)
Compression mode : Lossy
Stream size : 266 MiB (18%)
Title : Dub
Language : Russian
Default : Yes
Forced : No

Menu
00:00:00.000 : de:00:00:00.000
00:01:05.399 : de:00:01:05.399
00:09:39.913 : de:00:09:39.913
00:15:12.537 : de:00:15:12.537
00:20:03.160 : de:00:20:03.160
00:26:19.369 : de:00:26:19.369
00:30:56.646 : de:00:30:56.646
00:36:36.277 : de:00:36:36.277
00:43:25.645 : de:00:43:25.645
00:48:45.047 : de:00:48:45.047
00:54:41.945 : de:00:54:41.945
00:59:38.658 : de:00:59:38.658
01:05:05.652 : de:01:05:05.652
01:11:34.207 : de:01:11:34.207
01:17:04.578 : de:01:17:04.578
01:23:27.211 : de:01:23:27.211
01:32:19.659 : de:01:32:19.659





Релиз от:

Автор релиза:
 

Вложения

  • 15,5 KB Просмотры: 0
    Личеров 0
    Сидеров 0
    Файлов 1
    Объем 1,4 GB

Привет!

Мы группа людей которые решили помочь другим в решении их проблем, а так же пользователям с поиском самых свежих и качественных инфопродуктов. За 4 с небольшим месяца мы создали этот форум на который заходят ежедневно тысячи человек и посещаемость постоянно растёт. Мы создали панель лицензирования для защиты PHP скриптов от воровства и SEO панель для мониторинга наших сайтов и выбора верной стратегии их развития. Мы надеемся что то что мы создали пригодится Вам и возможно Вы поможете нам развиваться и совершенствоваться вместе с Вами.

Статистика форума

Темы
406.648
Сообщения
465.113
Пользователи
84.622
Новый пользователь
Дина775

Приложения форума для iOS и Android


У ркн там нет власти ;)
Приватные разговоры
Помощь Пользователи
    Вы не присоединились ни к одной комнате.