За последнюю неделю опубликовано 38 новых материалов.
Инструкция новичку Путеводитель по форуму Прокси для Telegram Показать подсказки , это бомба!

Скачать Тобрук / Tobruk (1967) BDRip 1080p | D, P бесплатно через торрент

  • Поучаствуй (в качестве покупателя) в любых пяти совместных покупках (кроме завершённых и "Моментальных") и получи группу "Новичок" навсегда -> ссылка на раздел
  • Получай до 480 рублей за каждого приглашенного пользователя!
    представляем Вам очередное расширение партнерской программы, подробности описаны тут -> ссылка
  • 90% материалов доступно к скачиванию после простой регистрации!
    Если же ты хочешь скачивать материалы без требования оставлять отзывы то получи группу "Новичок", 10 способов повышения описаны тут -> ссылка
  • К сожалению количество битых ссылок растет и мы уже не можем их оперативно восстанавливать поэтому просим помощи у каждого нашего пользователя.
    С сегодняшнего дня, за каждую восстановленную ссылку мы заплатим Вам.
    Подробнее тут -> ссылка
  • Перенесем твои заслуги с другого ресурса!
    Мы понимаем как сложно прокачивать аккаунты на форумах, вроде раскачал аккаунт, а тут появляется ресурс в 100 раз круче но тоже с системой прокачки и снова качать аккаунт...
    Предлагаем вам перенести Ваши заслуги на другом подобном ресурсе к нам.
    Подробности описаны тут -> ссылка
  • Вы можете получать по 2.5% с каждой покупки и продажи на маркете! Подробности в теме Партнёрская программа
Если Вы не хотите скачивать, Вы всегда можетепосмотретьонлайн, просто нажмите кнопку ниже :

Открыть плеер

Torrent_Bot

Торрент-Бот
Бот форума
4 Окт 2016
93
155
20
Информация о фильме
Название: Тобрук
Оригинальное название: Tobruk
Год выхода: 1967
Жанр: Военный, драма
Режиссер: Артур Хиллер
В ролях: Рок Хадсон, Джордж Пеппард, Найджел Грин, Гай Стокуэлл, Джек Уотсон, Перси Херберт, Норман Россингтон, Лайам Редмонд, Хайди Хант, Лео Гордон, Роберт Уолдерс, Энтони Эндаун, Курт Лоуэнс, Рико Каттани, Питер Коу, Лоуренс Монтейн, Роберт Ф. Хой, Фил Эдамс, Ронни Ронделл мл., Ли Фолкнер, Бэрри Форд, Фриц Форд, Джозеф Сарджент

О фильме:
Северная Африка, сентябрь 1942-го. Трудные времена. Идёт Вторая мировая война. Капитан Курт Бергман (Джордж Пеппард) и его люди — немецкие евреи, служащие в Специальной группе поиска, сокращённо SIG, освобождают из плена майора Дональда Крэйга (Рок Хадсон). Основываясь на старом предложении капитана, командование разработало план диверсионной операции по уничтожению в Тобруке бункеров с топливом, что должно помешать дальнейшему продвижению Африканского корпуса под командованием генерала-фельдмаршала Роммеля...



Страна: США
Студия: Gibraltar Productions, The Corman Company, Universal Pictures
Продолжительность: 01:49:24
Перевод: Дублированный, профессиональный многоголосый

Файл
Кодек: x.264
Качество: BDRip 1080p | Tobruk.1967.1080p.BluRay.x264-7SinS
Видео: MPEG-4 AVC, 1920x816, 9363 Kбит/с, 24.000 кадр/с
Аудио #1: Русский ( АС3, 2ch, 224 Кбит/с, 48.0 KHz) Профессиональный (дублированный) 6 канал Санкт-Петербург
Аудио #2: Русский ( АС3, 2ch, 192 Кбит/с, 48.0 KHz) Профессиональный (многоголосый, закадровый) НТВ+
Аудио #3: Английский ( АС3, 2ch, 224 Кбит/с, 48.0 KHz)
Субтитры: нет
MediaInfo
Источник: Tobruk.1967.1080p.BluRay.x264-7SinS
General
Unique ID : 218069872268702315682085066156007384452 (0xA40EBACD6DD9AF31B1275AEB18826584)
Complete name : Tobruk.1967.BDRip.1080p.mkv
Format : Matroska
Format version : Version 4 / Version 2
File size : 7.65 GiB
Duration : 1h 49mn
Overall bit rate : 10.0 Mbps
Encoded date : UTC 2018-08-08 21:38:11
Writing application : mkvmerge v7.1.0 ('Good Love') 64bit built on Jul 27 2014 13:06:55
Writing library : libebml v1.3.0 + libmatroska v1.4.1

Video
ID : 1
Format : AVC
Format/Info : Advanced Video Codec
Format profile : High@L4.1
Format settings, CABAC : Yes
Format settings, ReFrames : 5 frames
Codec ID : V_MPEG4/ISO/AVC
Duration : 1h 49mn
Bit rate : 9 363 Kbps
Width : 1 920 pixels
Height : 816 pixels
Display aspect ratio : 2.35:1
Frame rate mode : Constant
Frame rate : 24.000 fps
Color space : YUV
Chroma subsampling : 4:2:0
Bit depth : 8 bits
Scan type : Progressive
Bits/(Pixel*Frame) : 0.249
Stream size : 7.16 GiB (94%)
Writing library : x264 core 142 r2479 dd79a61
Encoding settings : cabac=1 / ref=5 / deblock=1:0:0 / analyse=0x3:0x133 / me=umh / subme=7 / psy=1 / psy_rd=1.00:0.00 / mixed_ref=1 / me_range=16 / chroma_me=1 / trellis=1 / 8x8dct=1 / cqm=0 / deadzone=21,11 / fast_pskip=0 / chroma_qp_offset=-2 / threads=12 / lookahead_threads=2 / sliced_threads=0 / nr=0 / decimate=1 / interlaced=0 / bluray_compat=0 / constrained_intra=0 / bframes=3 / b_pyramid=2 / b_adapt=2 / b_bias=0 / direct=3 / weightb=1 / open_gop=0 / weightp=2 / keyint=250 / keyint_min=24 / scenecut=40 / intra_refresh=0 / rc_lookahead=50 / rc=2pass / mbtree=1 / bitrate=9363 / ratetol=1.0 / qcomp=0.60 / qpmin=0 / qpmax=69 / qpstep=4 / cplxblur=20.0 / qblur=0.5 / ip_ratio=1.40 / aq=1:1.00
Language : English
Default : Yes
Forced : No

Audio #1
ID : 2
Format : AC-3
Format/Info : Audio Coding 3
Mode extension : CM (complete main)
Format settings, Endianness : Big
Codec ID : A_AC3
Duration : 1h 49mn
Bit rate mode : Constant
Bit rate : 224 Kbps
Channel(s) : 2 channels
Channel positions : Front: L R
Sampling rate : 48.0 KHz
Frame rate : 31.250 fps (1536 spf)
Compression mode : Lossy
Stream size : 175 MiB (2%)
Title : DUB-(ТВ6)
Language : Russian
Default : Yes
Forced : No

Audio #2
ID : 3
Format : AC-3
Format/Info : Audio Coding 3
Mode extension : CM (complete main)
Format settings, Endianness : Big
Codec ID : A_AC3
Duration : 1h 49mn
Bit rate mode : Constant
Bit rate : 192 Kbps
Channel(s) : 2 channels
Channel positions : Front: L R
Sampling rate : 48.0 KHz
Frame rate : 31.250 fps (1536 spf)
Compression mode : Lossy
Stream size : 150 MiB (2%)
Title : NTV+
Language : Russian
Default : No
Forced : No

Audio #3
ID : 4
Format : AC-3
Format/Info : Audio Coding 3
Mode extension : CM (complete main)
Format settings, Endianness : Big
Codec ID : A_AC3
Duration : 1h 49mn
Bit rate mode : Constant
Bit rate : 224 Kbps
Channel(s) : 2 channels
Channel positions : Front: L R
Sampling rate : 48.0 KHz
Frame rate : 31.250 fps (1536 spf)
Compression mode : Lossy
Stream size : 175 MiB (2%)
Language : English
Default : No
Forced : No

Menu
00:00:00.000 : en:00:00:00.000
00:10:28.792 : en:00:10:28.792
00:19:17.333 : en:00:19:17.333
00:32:05.000 : en:00:32:05.000
00:44:38.125 : en:00:44:38.125
00:56:29.500 : en:00:56:29.500
01:10:32.958 : en:01:10:32.958
01:16:30.875 : en:01:16:30.875
01:26:48.958 : en:01:26:48.958
01:41:10.417 : en:01:41:10.417
Скриншоты
 

Вложения

  • 20 KB Просмотры: 1
    Личеров 0
    Сидеров 0
    Файлов 1
    Объем 7,6 GB

Привет!

Мы группа людей которые решили помочь другим в решении их проблем, а так же пользователям с поиском самых свежих и качественных инфопродуктов. За 4 с небольшим месяца мы создали этот форум на который заходят ежедневно тысячи человек и посещаемость постоянно растёт. Мы создали панель лицензирования для защиты PHP скриптов от воровства и SEO панель для мониторинга наших сайтов и выбора верной стратегии их развития. Мы надеемся что то что мы создали пригодится Вам и возможно Вы поможете нам развиваться и совершенствоваться вместе с Вами.

Статистика форума

Темы
406.529
Сообщения
464.588
Пользователи
83.075
Новый пользователь
matataspribobahom

Приложения форума для iOS и Android


У ркн там нет власти ;)
Приватные разговоры
Помощь Пользователи
    Вы не присоединились ни к одной комнате.